<?xml version="1.0" standalone="no"?>
<!DOCTYPE svg PUBLIC "-//W3C//DTD SVG 1.1//EN" "http://www.w3.org/Graphics/SVG/1.1/DTD/svg11.dtd" >
<svg xmlns="http://www.w3.org/2000/svg" xmlns:xlink="http://www.w3.org/1999/xlink" version="1.1">
<metadata>
Created by FontForge 20170731 at Fri Jun  4 23:28:33 2010
 By Aleksey,,,
Copyright (c) 2002, 2005, 2010 Parachute :, www.parachute.gr.  All rights reserved.
</metadata>
<defs>
<font id="PFDinTextArabic-Light" horiz-adv-x="438" >
  <font-face 
    font-family="PF DinText Arabic Light "
    font-weight="300"
    font-stretch="normal"
    units-per-em="1000"
    panose-1="2 0 5 6 0 0 0 2 0 4"
    ascent="750"
    descent="-250"
    x-height="495"
    cap-height="696"
    bbox="-192 -387 1072 940"
    underline-thickness="50"
    underline-position="-250"
    unicode-range="U+0020-FEFC"
  />
<missing-glyph horiz-adv-x="436" 
d="M0 0v700h436v-700h-436zM218 387l150 272h-300zM243 350l153 -278v557zM68 41h300l-150 272zM40 627v-554l153 277z" />
    <glyph glyph-name="uniFDF2" unicode="&#xfedf;&#xfee0;&#xfeea;" horiz-adv-x="1014" arabic-form="isolated" 
d="M675 62h-5q-20 -28 -54 -45t-73 -17q-122 0 -143 98q-60 -64 -159 -64q-84 0 -130 41.5t-46 112.5q0 29 7.5 57t29.5 59.5t57.5 56t96.5 43.5t141 26v45h60v-302q0 -52 19.5 -81t70.5 -29q47 0 71.5 34.5t24.5 86.5v442h59v-436q0 -127 95 -127q98 0 98 130v533h59v-562
q0 -78 -44 -121t-113 -43q-85 0 -122 62zM128 194q0 -44 30.5 -72.5t89.5 -28.5q60 0 104.5 31t44.5 96v151q-147 -12 -208 -63t-61 -114z" />
    <glyph glyph-name="uniFDFC" unicode="&#x631;&#xfef3;&#xfe8e;&#x644;" horiz-adv-x="1065" arabic-form="isolated" 
d="M259 -141q67 0 102 39.5t35 106.5v621h58v-637q0 -86 -53.5 -140t-141.5 -54q-94 0 -144 52.5t-50 139.5v295h58v-277q0 -17 8 -30q19 -116 128 -116zM697 0q-78 0 -116 48.5t-38 134.5v543h58v-542q0 -121 97 -121q51 0 74.5 35t23.5 89v265h59v-288q0 -79 -43 -121.5
t-115 -42.5zM761 -155h-68v74h68v-74zM811 -144q135 8 135 148v383h59v-381q0 -105 -46.5 -156t-147.5 -55v61zM653 -155h-68v74h68v-74z" />
    <glyph glyph-name="uni06440622" unicode="&#xfedf;&#xfe82;" horiz-adv-x="471" arabic-form="isolated" 
d="M209 -6q-46 0 -88.5 16.5t-70.5 45.5q6 9 20 25.5t21 24.5q55 -49 117 -49q72 0 108.5 39.5t36.5 126.5v503h58v-516q0 -112 -55 -164t-147 -52zM196 696v-538h-59v538h59zM55 731q-1 3 -1 9v37l80 47h8q11 -26 25 -35t45 -9h52v-40h-58q-33 0 -49.5 5.5t-28.5 23.5h-6z
" />
    <glyph glyph-name="uni06440622.fina" unicode="&#xfee0;&#xfe82;" horiz-adv-x="494" arabic-form="final" 
d="M214 -5q-105 0 -164 61q2 3 41 50q49 -49 117 -49q77 0 111 39.5t34 126.5v503h58v-559q0 -104 83 -104v-63q-92 0 -115 67q-49 -72 -165 -72zM196 696v-538h-59v538h59zM55 731q-1 3 -1 9v37l80 47h8q11 -26 25 -35t45 -9h52v-40h-58q-33 0 -49.5 5.5t-28.5 23.5h-6z
" />
    <glyph glyph-name="uni06440623" unicode="&#xfedf;&#xfe84;" horiz-adv-x="471" arabic-form="isolated" 
d="M209 -6q-46 0 -88.5 16.5t-70.5 45.5q6 9 20 25.5t21 24.5q55 -49 117 -49q72 0 108.5 39.5t36.5 126.5v503h58v-516q0 -112 -55 -164t-147 -52zM196 696v-538h-59v538h59zM197 911q42 0 71 -20l-17 -34q-24 14 -56 14q-56 0 -56 -47q0 -44 57 -44h72v-40h-199v40h42l1 3
q-17 14 -17 44q0 33 25 58.5t77 25.5z" />
    <glyph glyph-name="uni06440623.fina" unicode="&#xfee0;&#xfe84;" horiz-adv-x="494" arabic-form="final" 
d="M214 -5q-105 0 -164 61q2 3 41 50q49 -49 117 -49q77 0 111 39.5t34 126.5v503h58v-559q0 -104 83 -104v-63q-92 0 -115 67q-49 -72 -165 -72zM196 696v-538h-59v538h59zM198 911q42 0 71 -20l-17 -34q-24 14 -56 14q-56 0 -56 -47q0 -44 57 -44h72v-40h-199v40h42l1 3
q-17 14 -17 44q0 33 25 58.5t77 25.5z" />
    <glyph glyph-name="uni06440625" unicode="&#xfedf;&#xfe88;" horiz-adv-x="471" arabic-form="isolated" 
d="M209 -6q-46 0 -88.5 16.5t-70.5 45.5q6 9 20 25.5t21 24.5q55 -49 117 -49q72 0 108.5 39.5t36.5 126.5v503h58v-516q0 -112 -55 -164t-147 -52zM196 696v-538h-59v538h59zM197 -69q42 0 71 -20l-17 -34q-24 14 -56 14q-56 0 -56 -47q0 -44 57 -44h72v-40h-199v40h42l1 3
q-17 14 -17 44q0 33 25 58.5t77 25.5z" />
    <glyph glyph-name="uni06440625.fina" unicode="&#xfee0;&#xfe88;" horiz-adv-x="494" arabic-form="final" 
d="M214 -5q-105 0 -164 61q2 3 41 50q49 -49 117 -49q77 0 111 39.5t34 126.5v503h58v-559q0 -104 83 -104v-63q-92 0 -115 67q-49 -72 -165 -72zM196 696v-538h-59v538h59zM198 -69q42 0 71 -20l-17 -34q-24 14 -56 14q-56 0 -56 -47q0 -44 57 -44h72v-40h-199v40h42l1 3
q-17 14 -17 44q0 33 25 58.5t77 25.5z" />
    <glyph glyph-name="uni06440627" unicode="&#xfedf;&#xfe8e;" horiz-adv-x="471" arabic-form="isolated" 
d="M209 -6q-46 0 -88.5 16.5t-70.5 45.5q6 9 20 25.5t21 24.5q55 -49 117 -49q72 0 108.5 39.5t36.5 126.5v503h58v-516q0 -112 -55 -164t-147 -52zM196 696v-538h-59v538h59z" />
    <glyph glyph-name="uni06440627.fina" unicode="&#xfee0;&#xfe8e;" horiz-adv-x="494" arabic-form="final" 
d="M214 -5q-105 0 -164 61q2 3 41 50q49 -49 117 -49q77 0 111 39.5t34 126.5v503h58v-559q0 -104 83 -104v-63q-92 0 -115 67q-49 -72 -165 -72zM196 696v-538h-59v538h59z" />
    <glyph glyph-name="uni06440671" unicode="&#xfedf;&#xfb51;" horiz-adv-x="471" 
d="M209 -6q-46 0 -88.5 16.5t-70.5 45.5q6 9 20 25.5t21 24.5q55 -49 117 -49q72 0 108.5 39.5t36.5 126.5v503h58v-516q0 -112 -55 -164t-147 -52zM196 696v-538h-59v538h59zM69 776h-3l-31 -31h-4v46l42 43h7q19 -54 50 -54h7v104h41v-30l3 -1q29 31 73 31q26 0 43 -15
t17 -45v-84h-187q-43 0 -58 36zM274 805q0 41 -36 41q-23 0 -42.5 -16.5t-19.5 -45.5v-4h98v25z" />
    <glyph glyph-name="uni06440671.fina" unicode="&#xfee0;&#xfb51;" horiz-adv-x="494" 
d="M214 -5q-105 0 -164 61q2 3 41 50q49 -49 117 -49q77 0 111 39.5t34 126.5v503h58v-559q0 -104 83 -104v-63q-92 0 -115 67q-49 -72 -165 -72zM196 696v-538h-59v538h59zM70 776h-3l-31 -31h-4v46l42 43h7q19 -54 50 -54h7v104h41v-30l3 -1q29 31 73 31q26 0 43 -15
t17 -45v-84h-187q-43 0 -58 36zM275 805q0 41 -36 41q-23 0 -42.5 -16.5t-19.5 -45.5v-4h98v25z" />
    <glyph glyph-name="uni0621" unicode="&#x621;" horiz-adv-x="487" arabic-form="isolated" 
d="M199 143q0 -43 27.5 -63.5t71.5 -20.5h120v-59h-353v59h104l3 3q-34 29 -34 84q0 56 40 99t124 43q70 0 125 -38l-27 -49q-44 30 -98 30q-46 0 -74.5 -24t-28.5 -64z" />
    <glyph glyph-name="uni0622" unicode="&#x622;" horiz-adv-x="183" arabic-form="isolated" 
d="M65 0v676h58v-676h-58zM-13 711q-1 3 -1 9v37l80 47h8q11 -26 25 -35t45 -9h52v-40h-58q-33 0 -49.5 5.5t-28.5 23.5h-6z" />
    <glyph glyph-name="uni0623" unicode="&#x623;" horiz-adv-x="183" arabic-form="isolated" 
d="M65 0v676h58v-676h-58zM120 911q42 0 71 -20l-17 -34q-24 14 -56 14q-56 0 -56 -47q0 -44 57 -44h72v-40h-199v40h42l1 3q-17 14 -17 44q0 33 25 58.5t77 25.5z" />
    <glyph glyph-name="uni0624" unicode="&#x624;" horiz-adv-x="522" arabic-form="isolated" 
d="M400 52q-1 1 -4 1q-21 -30 -58 -44.5t-76 -14.5q-197 0 -197 236q0 120 54 182.5t150 62.5q95 0 144 -61t49 -173v-234q0 -106 -57.5 -159t-155.5 -53h-134v63h137q66 0 107 37t41 104v53zM266 411q-139 0 -139 -177q0 -178 136 -178q65 0 101 41t36 145q0 79 -33 124
t-101 45zM288 726q42 0 71 -20l-17 -34q-24 14 -56 14q-56 0 -56 -47q0 -44 57 -44h72v-40h-199v40h42l1 3q-17 14 -17 44q0 33 25 58.5t77 25.5z" />
    <glyph glyph-name="uni0625" unicode="&#x625;" horiz-adv-x="183" arabic-form="isolated" 
d="M65 0v726h58v-726h-58zM120 -81q42 0 71 -20l-17 -34q-24 14 -56 14q-56 0 -56 -47q0 -44 57 -44h72v-40h-199v40h42l1 3q-17 14 -17 44q0 33 25 58.5t77 25.5z" />
    <glyph glyph-name="uni0626" unicode="&#x626;" horiz-adv-x="836" arabic-form="isolated" 
d="M479 62v243q0 83 45 126.5t123 43.5h129v-393h-59v329h-74q-57 0 -81 -31.5t-24 -94.5v-285h-204q-144 0 -206.5 65t-62.5 185v102h58v-75q0 -114 51 -164.5t187 -50.5h118zM193 602q42 0 71 -20l-17 -34q-24 14 -56 14q-56 0 -56 -47q0 -44 57 -44h72v-40h-199v40h42
l1 3q-17 14 -17 44q0 33 25 58.5t77 25.5z" />
    <glyph glyph-name="uni0627" unicode="&#x627;" horiz-adv-x="183" arabic-form="isolated" 
d="M65 0v726h58v-726h-58z" />
    <glyph glyph-name="uni0628" unicode="&#x628;" horiz-adv-x="722" arabic-form="isolated" 
d="M603 386h59v-217q0 -169 -169 -169h-159q-144 0 -206.5 65.5t-62.5 184.5v102h59v-75q0 -106 44.5 -160t158.5 -54h166q64 0 87 33.5t23 94.5v195zM410 -151h-69v70h69v-70z" />
    <glyph glyph-name="uni0629" unicode="&#x629;" horiz-adv-x="533" arabic-form="isolated" 
d="M274 474q75 0 137 -73.5t62 -194.5q0 -100 -54 -156.5t-150 -56.5q-104 0 -154 52t-50 162q0 116 62 191.5t147 75.5zM272 413q-60 0 -102 -59.5t-42 -145.5q0 -81 34.5 -116.5t108.5 -35.5t107.5 42.5t33.5 111.5q0 86 -44.5 144.5t-95.5 58.5zM349 555h-68v70h68v-70z
M250 555h-68v70h68v-70z" />
    <glyph glyph-name="uni062A" unicode="&#x62a;" horiz-adv-x="722" arabic-form="isolated" 
d="M603 386h59v-217q0 -169 -169 -169h-159q-144 0 -206.5 65.5t-62.5 184.5v102h59v-75q0 -106 44.5 -160t158.5 -54h166q64 0 87 33.5t23 94.5v195zM453 450h-68v70h68v-70zM354 450h-68v70h68v-70z" />
    <glyph glyph-name="uni062B" unicode="&#x62b;" horiz-adv-x="722" arabic-form="isolated" 
d="M603 386h59v-217q0 -169 -169 -169h-159q-144 0 -206.5 65.5t-62.5 184.5v102h59v-75q0 -106 44.5 -160t158.5 -54h166q64 0 87 33.5t23 94.5v195zM453 449h-68v70h68v-70zM354 449h-68v70h68v-70zM404 553h-69v70h69v-70z" />
    <glyph glyph-name="uni062C" unicode="&#x62c;" horiz-adv-x="516" arabic-form="isolated" 
d="M261 474q61 0 100.5 -26t53.5 -65t22 -88t9.5 -93.5t12 -82.5t32.5 -53v-66h-241q-57 0 -90 -30.5t-33 -81.5q0 -53 41 -77t103 -24q41 0 86 9q5 -20 13 -60q-41 -12 -107 -12q-96 0 -147 43t-51 120q0 91 59.5 133.5t149.5 42.5h145l4 4q-19 18 -28.5 52.5t-10.5 71.5
t-5.5 76.5t-13.5 71t-35 51.5t-68 20q-64 0 -129 -36l-25 53q76 47 153 47zM333 -131h-69v70h69v-70z" />
    <glyph glyph-name="uni062D" unicode="&#x62d;" horiz-adv-x="516" arabic-form="isolated" 
d="M261 474q61 0 100.5 -26t53.5 -65t22 -88t9.5 -93.5t12 -82.5t32.5 -53v-66h-241q-57 0 -90 -30.5t-33 -81.5q0 -53 41 -77t103 -24q41 0 86 9q5 -20 13 -60q-41 -12 -107 -12q-96 0 -147 43t-51 120q0 91 59.5 133.5t149.5 42.5h145l4 4q-19 18 -28.5 52.5t-10.5 71.5
t-5.5 76.5t-13.5 71t-35 51.5t-68 20q-64 0 -129 -36l-25 53q76 47 153 47z" />
    <glyph glyph-name="uni062E" unicode="&#x62e;" horiz-adv-x="516" arabic-form="isolated" 
d="M261 474q61 0 100.5 -26t53.5 -65t22 -88t9.5 -93.5t12 -82.5t32.5 -53v-66h-241q-57 0 -90 -30.5t-33 -81.5q0 -53 41 -77t103 -24q41 0 86 9q5 -20 13 -60q-41 -12 -107 -12q-96 0 -147 43t-51 120q0 91 59.5 133.5t149.5 42.5h145l4 4q-19 18 -28.5 52.5t-10.5 71.5
t-5.5 76.5t-13.5 71t-35 51.5t-68 20q-64 0 -129 -36l-25 53q76 47 153 47zM291 555h-69v70h69v-70z" />
    <glyph glyph-name="uni062F" unicode="&#x62f;" horiz-adv-x="486" arabic-form="isolated" 
d="M245 410q-77 0 -134 -41l-33 50q71 55 166 55q182 0 182 -184v-290h-361v62h302v208q0 73 -29 106.5t-93 33.5z" />
    <glyph glyph-name="uni0630" unicode="&#x630;" horiz-adv-x="486" arabic-form="isolated" 
d="M245 410q-77 0 -134 -41l-33 50q71 55 166 55q182 0 182 -184v-290h-361v62h302v208q0 73 -29 106.5t-93 33.5zM272 555h-69v70h69v-70z" />
    <glyph glyph-name="uni0631" unicode="&#x631;" horiz-adv-x="192" arabic-form="isolated" 
d="M-50 -144q67 5 95 40.5t28 110.5v380h59v-385q0 -98 -42 -150t-140 -57v61z" />
    <glyph glyph-name="uni0632" unicode="&#x632;" horiz-adv-x="192" arabic-form="isolated" 
d="M-50 -144q67 5 95 40.5t28 110.5v380h59v-385q0 -98 -42 -150t-140 -57v61zM131 470h-69v70h69v-70z" />
    <glyph glyph-name="uni0633" unicode="&#x633;" horiz-adv-x="999" arabic-form="isolated" 
d="M450 62h37q131 0 131 151v174h58v-203q0 -132 100 -132q51 0 76.5 41.5t25.5 104.5q0 68 -25.5 138.5t-70.5 118.5l47 39q110 -123 110 -294q0 -89 -39.5 -148t-123.5 -59q-47 0 -82.5 22.5t-52.5 61.5h-4q-44 -77 -150 -77h-37v-11q0 -86 -53 -140t-141 -54
q-94 0 -142.5 50.5t-48.5 141.5v295h58v-277q0 -146 133 -146q66 0 101 39.5t35 106.5v382h58v-325z" />
    <glyph glyph-name="uni0634" unicode="&#x634;" horiz-adv-x="999" arabic-form="isolated" 
d="M450 62h37q131 0 131 151v174h58v-203q0 -132 100 -132q51 0 76.5 41.5t25.5 104.5q0 68 -25.5 138.5t-70.5 118.5l47 39q110 -123 110 -294q0 -89 -39.5 -148t-123.5 -59q-47 0 -82.5 22.5t-52.5 61.5h-4q-44 -77 -150 -77h-37v-11q0 -86 -53 -140t-141 -54
q-94 0 -142.5 50.5t-48.5 141.5v295h58v-277q0 -146 133 -146q66 0 101 39.5t35 106.5v382h58v-325zM724 555h-68v70h68v-70zM625 555h-68v70h68v-70zM675 659h-69v70h69v-70z" />
    <glyph glyph-name="uni0635" unicode="&#x635;" horiz-adv-x="970" arabic-form="isolated" 
d="M398 5v437h59v-127h4q47 72 116.5 115t147.5 43q185 0 185 -185v-288h-453v-11q0 -85 -55 -139.5t-143 -54.5q-94 0 -144 51t-50 141v295h58v-277q0 -70 34 -108t102 -38q69 0 104 40.5t35 105.5zM457 113v-51h393v206q0 71 -31.5 106t-101.5 35q-80 0 -141 -45.5
t-90 -112t-29 -138.5z" />
    <glyph glyph-name="uni0636" unicode="&#x636;" horiz-adv-x="970" arabic-form="isolated" 
d="M398 5v437h59v-127h4q47 72 116.5 115t147.5 43q185 0 185 -185v-288h-453v-11q0 -85 -55 -139.5t-143 -54.5q-94 0 -144 51t-50 141v295h58v-277q0 -70 34 -108t102 -38q69 0 104 40.5t35 105.5zM457 113v-51h393v206q0 71 -31.5 106t-101.5 35q-80 0 -141 -45.5
t-90 -112t-29 -138.5zM710 555h-69v70h69v-70z" />
    <glyph glyph-name="uni0637" unicode="&#x637;" horiz-adv-x="736" arabic-form="isolated" 
d="M223 314h4q44 72 114.5 115.5t149.5 43.5q185 0 185 -185v-288h-626v62h114v664h59v-412zM223 113v-51h394v206q0 71 -31.5 106t-101.5 35q-79 0 -141 -47.5t-91 -114t-29 -134.5z" />
    <glyph glyph-name="uni0638" unicode="&#x638;" horiz-adv-x="736" arabic-form="isolated" 
d="M223 314h4q44 72 114.5 115.5t149.5 43.5q185 0 185 -185v-288h-626v62h114v664h59v-412zM223 113v-51h394v206q0 71 -31.5 106t-101.5 35q-79 0 -141 -47.5t-91 -114t-29 -134.5zM484 555h-69v70h69v-70z" />
    <glyph glyph-name="uni0639" unicode="&#x639;" horiz-adv-x="515" arabic-form="isolated" 
d="M447 431l-32 -54q-46 33 -109 33q-67 0 -108 -45t-41 -133q0 -170 161 -170h137v-62h-195q-57 0 -93.5 -31t-36.5 -82q0 -101 149 -101q47 0 105 12l13 -59q-57 -16 -126 -16q-99 0 -152.5 41.5t-53.5 119.5q0 60 33 102.5t83 55.5v4q-88 42 -88 190q0 104 56.5 171
t156.5 67q84 0 141 -43z" />
    <glyph glyph-name="uni063A" unicode="&#x63a;" horiz-adv-x="515" arabic-form="isolated" 
d="M447 431l-32 -54q-46 33 -109 33q-67 0 -108 -45t-41 -133q0 -170 161 -170h137v-62h-195q-57 0 -93.5 -31t-36.5 -82q0 -101 149 -101q47 0 105 12l13 -59q-57 -16 -126 -16q-99 0 -152.5 41.5t-53.5 119.5q0 60 33 102.5t83 55.5v4q-88 42 -88 190q0 104 56.5 171
t156.5 67q84 0 141 -43zM292 555h-69v70h69v-70z" />
    <glyph glyph-name="uni0641" unicode="&#x641;" horiz-adv-x="836" arabic-form="isolated" 
d="M381 267q0 87 52.5 147t145.5 60q96 0 146.5 -62t50.5 -172q0 -115 -49 -177.5t-144 -62.5h-241q-197 0 -254 131q-23 53 -23 185v36h62v-75q0 -215 200 -215h123q48 0 73 -3q0 1 0.5 2t0.5 2q-68 18 -105.5 70t-37.5 134zM714 243q0 169 -136 169q-66 0 -100 -43.5
t-34 -104.5q0 -157 209 -182q61 37 61 161zM614 555h-69v70h69v-70z" />
    <glyph glyph-name="uni0642" unicode="&#x642;" horiz-adv-x="702" arabic-form="isolated" 
d="M582 54l-6 2q-20 -31 -57 -46.5t-77 -15.5q-198 0 -198 236q0 120 54.5 182.5t150.5 62.5q94 0 143.5 -61.5t49.5 -172.5v-180q0 -130 -72 -198t-213 -68q-292 0 -292 289v197h58v-162q0 -58 8.5 -100t32 -81.5t72 -60t121.5 -20.5q118 0 168 51.5t57 145.5zM446 411
q-67 0 -104 -44t-37 -133q0 -178 138 -178q65 0 101 40.5t36 145.5q0 78 -33.5 123.5t-100.5 45.5zM526 555h-68v70h68v-70zM427 555h-68v70h68v-70z" />
    <glyph glyph-name="uni0643" unicode="&#x643;" horiz-adv-x="722" arabic-form="isolated" 
d="M603 726h59v-553q0 -85 -44 -129t-125 -44h-159q-144 0 -206.5 65t-62.5 185v102h58v-76q0 -107 43 -160.5t161 -53.5h166q64 0 87 35t23 97v532zM396 472q42 0 71 -20l-17 -34q-24 14 -56 14q-56 0 -56 -47q0 -44 57 -44h72v-40h-199v40h42l1 3q-17 14 -17 44
q0 33 25 58.5t77 25.5z" />
    <glyph glyph-name="uni0644" unicode="&#x644;" horiz-adv-x="515" arabic-form="isolated" 
d="M455 726v-733q0 -87 -53 -142.5t-143 -55.5q-94 0 -144 50.5t-50 140.5v296h59v-277q0 -70 34 -108.5t102 -38.5t102.5 41.5t34.5 110.5v716h58z" />
    <glyph glyph-name="uni0645" unicode="&#x645;" horiz-adv-x="706" arabic-form="isolated" 
d="M309 62h127q71 0 109.5 37.5t38.5 132.5q0 180 -134 180q-141 0 -141 -175v-175zM424 0h-190q-61 0 -86 -22t-25 -83v-167h-58v173q0 82 40 121.5t123 39.5h22v193q0 103 53 161.5t146 58.5q197 0 197 -243q0 -124 -56 -178t-166 -54z" />
    <glyph glyph-name="uni0646" unicode="&#x646;" horiz-adv-x="515" arabic-form="isolated" 
d="M455 387v-394q0 -87 -53 -142.5t-143 -55.5q-94 0 -144 50.5t-50 140.5v296h59v-277q0 -70 34 -108.5t102 -38.5t102.5 41.5t34.5 110.5v377h58zM291 450h-69v70h69v-70z" />
    <glyph glyph-name="uni0648" unicode="&#x648;" horiz-adv-x="522" arabic-form="isolated" 
d="M400 52q-1 1 -4 1q-21 -30 -58 -44.5t-76 -14.5q-197 0 -197 236q0 120 54 182.5t150 62.5q95 0 144 -61t49 -173v-234q0 -106 -57.5 -159t-155.5 -53h-134v63h137q66 0 107 37t41 104v53zM266 411q-139 0 -139 -177q0 -178 136 -178q65 0 101 41t36 145q0 79 -33 124
t-101 45z" />
    <glyph glyph-name="uni0649" unicode="&#x649;" horiz-adv-x="836" arabic-form="isolated" 
d="M479 62v243q0 83 45 126.5t123 43.5h129v-393h-59v329h-74q-57 0 -81 -31.5t-24 -94.5v-285h-204q-144 0 -206.5 65t-62.5 185v102h58v-75q0 -114 51 -164.5t187 -50.5h118z" />
    <glyph glyph-name="uni064A" unicode="&#x64a;" horiz-adv-x="836" arabic-form="isolated" 
d="M479 62v243q0 83 45 126.5t123 43.5h129v-393h-59v329h-74q-57 0 -81 -31.5t-24 -94.5v-285h-204q-144 0 -206.5 65t-62.5 185v102h58v-75q0 -114 51 -164.5t187 -50.5h118zM453 -151h-68v70h68v-70zM354 -151h-68v70h68v-70z" />
    <glyph glyph-name="uni066E.init" unicode="&#x66e;" horiz-adv-x="197" 
d="M-34 30q0 14 10 23.5t24 9.5q48 0 63 28t15 89v272h59v-271q0 -88 -30.5 -134.5t-106.5 -46.5q-14 0 -24 8.5t-10 21.5z" />
    <glyph glyph-name="uni066E.medi" unicode="&#x66e;" horiz-adv-x="213" 
d="M111 58q-37 -58 -111 -58q-15 0 -24.5 8.5t-9.5 21.5q0 14 9.5 23.5t24.5 9.5q44 0 62 30t18 88v206h58v-216q0 -107 75 -108v-63q-32 0 -61 14t-41 44z" />
    <glyph glyph-name="uni066E.fina" unicode="&#x66e;" horiz-adv-x="737" 
d="M603 386h59v-216q0 -104 75 -107v-63q-83 0 -105 62q-22 -34 -53 -48t-86 -14h-159q-144 0 -206.5 65.5t-62.5 184.5v102h59v-75q0 -106 44.5 -160t158.5 -54h166q67 0 88.5 31.5t21.5 96.5v195z" />
    <glyph glyph-name="uni066F.init" unicode="&#x66f;" horiz-adv-x="520" 
d="M0 0q-16 0 -25 8.5t-9 22.5t9 22.5t25 8.5h134q48 0 73 -3q0 1 1 3q-68 18 -105.5 70.5t-37.5 134.5q0 87 52.5 147t145.5 60q96 0 146.5 -62t50.5 -172q0 -115 -49 -177.5t-144 -62.5h-267zM398 243q0 169 -135 169q-67 0 -101 -43.5t-34 -104.5q0 -156 209 -181
q61 38 61 160z" />
    <glyph glyph-name="uni066F.medi" unicode="&#x66f;" horiz-adv-x="526" 
d="M-35 32q0 13 10 22t25 9h141q20 0 46 -2l1 4q-50 21 -86.5 73.5t-36.5 125.5q0 93 52.5 151.5t144.5 58.5q96 0 150 -61t54 -166q0 -59 -20 -107t-48 -73l2 -4h126v-63h-526q-15 0 -25 9t-10 23zM263 413q-64 0 -99.5 -40.5t-35.5 -100.5q0 -82 51 -134t147 -69
q78 52 78 174q0 80 -37.5 125t-103.5 45z" />
    <glyph glyph-name="uni066F.fina" unicode="&#x66f;" horiz-adv-x="702" 
d="M702 0h-64q-9 -95 -80 -150.5t-201 -55.5q-67 0 -119 16t-84 42.5t-52.5 65t-28.5 78.5t-8 87v197h58v-162q0 -46 4.5 -81t19 -71t39.5 -59t68.5 -37.5t102.5 -14.5q199 0 218 145h-103q-110 0 -167.5 53.5t-57.5 177.5q0 114 52.5 179t155.5 65q90 0 138.5 -57
t48.5 -160v-196h60v-62zM580 62v175q0 87 -31 130.5t-98 43.5q-72 0 -107.5 -51t-35.5 -130q0 -94 41.5 -131t113.5 -37h117z" />
    <glyph glyph-name="uni0671" unicode="&#x671;" horiz-adv-x="183" arabic-form="isolated" 
d="M65 0v676h58v-676h-58zM-12 776h-3l-31 -31h-4v46l42 43h7q19 -54 50 -54h7v104h41v-30l3 -1q29 31 73 31q26 0 43 -15t17 -45v-84h-187q-43 0 -58 36zM193 805q0 41 -36 41q-23 0 -42.5 -16.5t-19.5 -45.5v-4h98v25z" />
    <glyph glyph-name="uni0672.fina" unicode="&#x672;" horiz-adv-x="194" 
d="M194 0h-20q-60 0 -84.5 27.5t-24.5 93.5v555h59v-542q0 -39 12.5 -55t50.5 -16h7v-63zM75 780l1 1q-17 16 -17 46q0 32 24.5 58t74.5 26q43 0 78 -24q-2 -3 -8 -14.5t-10 -17.5q-25 16 -60 16q-57 0 -57 -48q0 -43 54 -43h78v-40h-178q-43 0 -58 36h-3q-4 -5 -9.5 -10
t-12 -11.5l-9.5 -9.5h-4v45l42 43h7q19 -53 50 -53h17z" />
    <glyph glyph-name="uni0673.fina" unicode="&#x673;" horiz-adv-x="194" 
d="M194 0h-20q-60 0 -84.5 27.5t-24.5 93.5v605h59v-592q0 -39 12.5 -55t50.5 -16h7v-63zM75 -212l1 1q-17 16 -17 46q0 32 24.5 58t74.5 26q43 0 78 -24q-2 -3 -8 -14.5t-10 -17.5q-25 16 -60 16q-57 0 -57 -48q0 -43 54 -43h78v-40h-178q-43 0 -58 36h-3l-31 -31h-4v45
l42 43h7q19 -53 50 -53h17z" />
    <glyph glyph-name="uni0675.fina" unicode="&#x675;" horiz-adv-x="194" 
d="M194 0h-20q-60 0 -84.5 27.5t-24.5 93.5v555h59v-542q0 -39 12.5 -55t50.5 -16h7v-63zM198 911q42 0 71 -20l-17 -34q-24 14 -56 14q-56 0 -56 -47q0 -44 57 -44h72v-40h-199v40h42l1 3q-17 14 -17 44q0 33 25 58.5t77 25.5z" />
    <glyph glyph-name="uni0676.fina" unicode="&#x676;" horiz-adv-x="520" 
d="M520 62v-62h-60q-3 -102 -61.5 -153.5t-152.5 -51.5h-132v63h126q68 0 112.5 36t44.5 106h-108q-110 0 -167 53.5t-57 177.5q0 113 51.5 178.5t152.5 65.5q93 0 142 -56.5t49 -160.5v-196h60zM279 62h119v175q0 86 -31 130t-102 44q-69 0 -103.5 -47t-34.5 -134
q0 -94 40.5 -131t111.5 -37zM387 725q42 0 71 -20l-17 -34q-24 14 -56 14q-56 0 -56 -47q0 -44 57 -44h72v-40h-199v40h42l1 3q-17 14 -17 44q0 33 25 58.5t77 25.5z" />
    <glyph glyph-name="uni0677" unicode="&#x677;" horiz-adv-x="522" arabic-form="isolated" 
d="M400 52q-1 1 -4 1q-21 -30 -58 -44.5t-76 -14.5q-197 0 -197 236q0 120 54 182.5t150 62.5q95 0 144 -61t49 -173v-234q0 -106 -57.5 -159t-155.5 -53h-134v63h137q66 0 107 37t41 104v53zM266 411q-139 0 -139 -177q0 -178 136 -178q65 0 101 41t36 145q0 79 -33 124
t-101 45zM180 728q32 0 49.5 -20.5t17.5 -50.5q0 -56 -70 -79l-25 -8q-20 -5 -57.5 -15t-43.5 -12v40l99 29q-31 19 -31 54q0 25 17 43.5t44 18.5zM387 725q42 0 71 -20l-17 -34q-24 14 -56 14q-56 0 -56 -47q0 -44 57 -44h72v-40h-199v40h42l1 3q-17 14 -17 44
q0 33 25 58.5t77 25.5z" />
    <glyph glyph-name="uni0678.init" unicode="&#x678;" horiz-adv-x="197" 
d="M-34 30q0 14 10 23.5t24 9.5q48 0 63 28t15 89v272h59v-271q0 -88 -30.5 -134.5t-106.5 -46.5q-14 0 -24 8.5t-10 21.5zM168 701q42 0 71 -20l-17 -34q-24 14 -56 14q-56 0 -56 -47q0 -44 57 -44h72v-40h-199v40h42l1 3q-17 14 -17 44q0 33 25 58.5t77 25.5z" />
    <glyph glyph-name="uni0678.medi" unicode="&#x678;" horiz-adv-x="213" 
d="M111 58q-37 -58 -111 -58q-15 0 -24.5 8.5t-9.5 21.5q0 14 9.5 23.5t24.5 9.5q44 0 62 30t18 88v206h58v-216q0 -107 75 -108v-63q-32 0 -61 14t-41 44zM169 701q42 0 71 -20l-17 -34q-24 14 -56 14q-56 0 -56 -47q0 -44 57 -44h72v-40h-199v40h42l1 3q-17 14 -17 44
q0 33 25 58.5t77 25.5z" />
    <glyph glyph-name="uni0678.fina" unicode="&#x678;" horiz-adv-x="836" 
d="M479 62v243q0 83 45 126.5t123 43.5h129v-413h60v-62h-119v411h-74q-57 0 -81 -31.5t-24 -94.5v-285h-204q-144 0 -206.5 65t-62.5 185v102h58v-75q0 -106 45 -160.5t159 -54.5h152zM673 726q42 0 71 -20l-17 -34q-24 14 -56 14q-56 0 -56 -47q0 -44 57 -44h72v-40h-199
v40h42l1 3q-17 14 -17 44q0 33 25 58.5t77 25.5z" />
    <glyph glyph-name="uni0679" unicode="&#x679;" horiz-adv-x="722" arabic-form="isolated" 
d="M603 386h59v-217q0 -169 -169 -169h-159q-144 0 -206.5 65.5t-62.5 184.5v102h59v-75q0 -106 44.5 -160t158.5 -54h166q64 0 87 33.5t23 94.5v195zM416 598q29 0 47.5 -16.5t18.5 -46.5v-85h-224v40h35v145h40v-74h3q33 37 80 37zM403 558q-26 0 -47 -21t-21 -47h106v22
q0 46 -38 46z" />
    <glyph glyph-name="uni067A" unicode="&#x67a;" horiz-adv-x="722" arabic-form="isolated" 
d="M603 386h59v-217q0 -169 -169 -169h-159q-144 0 -206.5 65.5t-62.5 184.5v102h59v-75q0 -106 44.5 -160t158.5 -54h166q64 0 87 33.5t23 94.5v195zM404 450h-69v70h69v-70zM404 554h-69v70h69v-70z" />
    <glyph glyph-name="uni067B" unicode="&#x67b;" horiz-adv-x="722" arabic-form="isolated" 
d="M603 386h59v-217q0 -169 -169 -169h-159q-144 0 -206.5 65.5t-62.5 184.5v102h59v-75q0 -106 44.5 -160t158.5 -54h166q64 0 87 33.5t23 94.5v195zM404 -255h-69v70h69v-70zM404 -151h-69v70h69v-70z" />
    <glyph glyph-name="uni067C.init" unicode="&#x67c;" horiz-adv-x="197" 
d="M10 -16q0 6 2 16h-12q-14 0 -24 8.5t-10 21.5q0 14 10 23.5t24 9.5q48 0 63 28t15 89v272h59v-271q0 -85 -26 -127q21 -8 34.5 -27.5t13.5 -42.5q0 -31 -20.5 -53t-53.5 -22q-32 0 -53.5 22t-21.5 53zM45 -16q0 -17 10.5 -29t29.5 -12q18 0 28.5 12t10.5 29
q0 16 -11 27.5t-28 11.5h-2q-10 -9 -30 -16q-8 -10 -8 -23zM182 530h-68v70h68v-70zM83 530h-68v70h68v-70z" />
    <glyph glyph-name="uni067C.medi" unicode="&#x67c;" horiz-adv-x="213" 
d="M32 -13q0 6 2 16q-16 -3 -34 -3q-15 0 -24.5 8.5t-9.5 21.5q0 14 9.5 23.5t24.5 9.5q44 0 62 30t18 88v206h58v-216q0 -107 75 -108v-63q-19 0 -34 4q2 -10 2 -17q0 -31 -20.5 -53t-53.5 -22q-32 0 -53.5 22t-21.5 53zM67 -13q0 -17 10.5 -29t29.5 -12q18 0 28.5 12
t10.5 29q0 16 -11 27.5t-28 11.5t-28.5 -11.5t-11.5 -27.5zM91 470h-68v70h68v-70zM190 470h-68v70h68v-70z" />
    <glyph glyph-name="uni067C.fina" unicode="&#x67c;" horiz-adv-x="737" 
d="M312 -27q0 17 5 27q-135 4 -193.5 69t-58.5 181v102h59v-75q0 -106 44.5 -160t158.5 -54h166q67 0 88.5 31.5t21.5 96.5v195h59v-216q0 -104 75 -107v-63q-83 0 -105 62q-22 -34 -53 -48t-86 -14h-37q5 -13 5 -27q0 -31 -20.5 -53t-53.5 -22q-32 0 -53.5 22t-21.5 53z
M344 450h-68v70h68v-70zM443 450h-68v70h68v-70zM347 -27q0 -17 10.5 -29t29.5 -12q18 0 28.5 12t10.5 29q0 16 -11 27h-57q-11 -11 -11 -27z" />
    <glyph glyph-name="uni067D.init" unicode="&#x67d;" horiz-adv-x="197" 
d="M-34 30q0 14 10 23.5t24 9.5q48 0 63 28t15 89v272h59v-271q0 -88 -30.5 -134.5t-106.5 -46.5q-14 0 -24 8.5t-10 21.5zM114 702h68v-69h-68v69zM15 702h68v-69h-68v69zM64 598h69v-69h-69v69z" />
    <glyph glyph-name="uni067D.medi" unicode="&#x67d;" horiz-adv-x="213" 
d="M111 58q-37 -58 -111 -58q-15 0 -24.5 8.5t-9.5 21.5q0 14 9.5 23.5t24.5 9.5q44 0 62 30t18 88v206h58v-216q0 -107 75 -108v-63q-32 0 -61 14t-41 44zM122 642h68v-69h-68v69zM23 642h68v-69h-68v69zM72 538h69v-69h-69v69z" />
    <glyph glyph-name="uni067D.fina" unicode="&#x67d;" horiz-adv-x="737" 
d="M603 386h59v-216q0 -104 75 -107v-63q-83 0 -105 62q-22 -34 -53 -48t-86 -14h-159q-144 0 -206.5 65.5t-62.5 184.5v102h59v-75q0 -106 44.5 -160t158.5 -54h166q67 0 88.5 31.5t21.5 96.5v195zM375 622h68v-69h-68v69zM276 622h68v-69h-68v69zM325 518h69v-69h-69v69z
" />
    <glyph glyph-name="uni067E" unicode="&#x67e;" horiz-adv-x="722" arabic-form="isolated" 
d="M603 386h59v-217q0 -169 -169 -169h-159q-144 0 -206.5 65.5t-62.5 184.5v102h59v-75q0 -106 44.5 -160t158.5 -54h166q64 0 87 33.5t23 94.5v195zM385 -81h68v-69h-68v69zM286 -81h68v-69h-68v69zM335 -185h69v-69h-69v69z" />
    <glyph glyph-name="uni067F" unicode="&#x67f;" horiz-adv-x="722" arabic-form="isolated" 
d="M603 386h59v-217q0 -169 -169 -169h-159q-144 0 -206.5 65.5t-62.5 184.5v102h59v-75q0 -106 44.5 -160t158.5 -54h166q64 0 87 33.5t23 94.5v195zM453 450h-68v70h68v-70zM354 450h-68v70h68v-70zM453 554h-68v70h68v-70zM354 554h-68v70h68v-70z" />
    <glyph glyph-name="uni0680" unicode="&#x680;" horiz-adv-x="722" arabic-form="isolated" 
d="M603 386h59v-217q0 -169 -169 -169h-159q-144 0 -206.5 65.5t-62.5 184.5v102h59v-75q0 -106 44.5 -160t158.5 -54h166q64 0 87 33.5t23 94.5v195zM453 -255h-68v70h68v-70zM354 -255h-68v70h68v-70zM453 -151h-68v70h68v-70zM354 -151h-68v70h68v-70z" />
    <glyph glyph-name="uni0681.init" unicode="&#x681;" horiz-adv-x="474" 
d="M0 0q-16 0 -25 9t-9 23t9 22t25 8h377l3 4q-27 28 -34 105q-13 133 -27 172q-26 67 -99 67q-65 0 -129 -36q-11 24 -26 53q76 47 154 47q61 0 100 -26t53.5 -65.5t22.5 -88.5t9 -93t12 -82t33 -53v-66h-449zM266 726q42 0 71 -20l-17 -34q-24 14 -56 14q-56 0 -56 -47
q0 -44 57 -44h72v-40h-199v40h42l1 3q-17 14 -17 44q0 33 25 58.5t77 25.5z" />
    <glyph glyph-name="uni0681.medi" unicode="&#x681;" horiz-adv-x="482" 
d="M482 0h-482q-34 0 -34 31q0 14 9 22.5t25 8.5h377l3 4q-25 25 -34 106q-5 48 -8.5 73.5t-10 57.5t-14.5 48t-20.5 31.5t-30.5 21.5t-42 6q-65 0 -129 -36q-11 24 -26 53q76 47 154 47q56 0 93.5 -22.5t53.5 -59t24.5 -80.5t12 -88t9 -80.5t21.5 -59t45 -22.5h4v-62z
M270 726q42 0 71 -20l-17 -34q-24 14 -56 14q-56 0 -56 -47q0 -44 57 -44h72v-40h-199v40h42l1 3q-17 14 -17 44q0 33 25 58.5t77 25.5z" />
    <glyph glyph-name="uni0681.fina" unicode="&#x681;" horiz-adv-x="524" 
d="M419 62l3 4q-25 25 -34 106q-5 48 -8.5 73.5t-10 57.5t-14.5 48t-20.5 31.5t-30.5 21.5t-42 6q-64 0 -129 -36q-11 24 -26 53q76 47 154 47q77 0 118 -42.5t51 -103t14 -121t20 -103t56 -42.5h4v-62h-274q-57 0 -90 -30.5t-33 -81.5q0 -53 41 -77t103 -24q41 0 86 9
q5 -20 13 -60q-41 -12 -107 -12q-97 0 -147.5 43t-50.5 122q0 85 56.5 129t138.5 44h159zM286 726q42 0 71 -20l-17 -34q-24 14 -56 14q-56 0 -56 -47q0 -44 57 -44h72v-40h-199v40h42l1 3q-17 14 -17 44q0 33 25 58.5t77 25.5z" />
    <glyph glyph-name="uni0682.init" unicode="&#x682;" horiz-adv-x="474" 
d="M0 0q-16 0 -25 9t-9 23t9 22t25 8h377l3 4q-27 28 -34 105q-13 133 -27 172q-26 67 -99 67q-65 0 -129 -36q-11 24 -26 53q76 47 154 47q61 0 100 -26t53.5 -65.5t22.5 -88.5t9 -93t12 -82t33 -53v-66h-449zM272 555h-69v70h69v-70zM272 659h-69v70h69v-70z" />
    <glyph glyph-name="uni0682.medi" unicode="&#x682;" horiz-adv-x="482" 
d="M482 0h-482q-34 0 -34 31q0 14 9 22.5t25 8.5h377l3 4q-25 25 -34 106q-5 48 -8.5 73.5t-10 57.5t-14.5 48t-20.5 31.5t-30.5 21.5t-42 6q-65 0 -129 -36q-11 24 -26 53q76 47 154 47q56 0 93.5 -22.5t53.5 -59t24.5 -80.5t12 -88t9 -80.5t21.5 -59t45 -22.5h4v-62z
M276 555h-69v70h69v-70zM276 659h-69v70h69v-70z" />
    <glyph glyph-name="uni0682.fina" unicode="&#x682;" horiz-adv-x="524" 
d="M419 62l3 4q-25 25 -34 106q-5 48 -8.5 73.5t-10 57.5t-14.5 48t-20.5 31.5t-30.5 21.5t-42 6q-64 0 -129 -36q-11 24 -26 53q76 47 154 47q77 0 118 -42.5t51 -103t14 -121t20 -103t56 -42.5h4v-62h-274q-57 0 -90 -30.5t-33 -81.5q0 -53 41 -77t103 -24q41 0 86 9
q5 -20 13 -60q-41 -12 -107 -12q-97 0 -147.5 43t-50.5 122q0 85 56.5 129t138.5 44h159zM292 555h-69v70h69v-70zM292 659h-69v70h69v-70z" />
    <glyph glyph-name="uni0683" unicode="&#x683;" horiz-adv-x="516" arabic-form="isolated" 
d="M261 474q61 0 100.5 -26t53.5 -65t22 -88t9.5 -93.5t12 -82.5t32.5 -53v-66h-241q-57 0 -90 -30.5t-33 -81.5q0 -53 41 -77t103 -24q41 0 86 9q5 -20 13 -60q-41 -12 -107 -12q-96 0 -147 43t-51 120q0 91 59.5 133.5t149.5 42.5h145l4 4q-19 18 -28.5 52.5t-10.5 71.5
t-5.5 76.5t-13.5 71t-35 51.5t-68 20q-64 0 -129 -36l-25 53q76 47 153 47zM404 -134h-68v70h68v-70zM305 -134h-68v70h68v-70z" />
    <glyph glyph-name="uni0684" unicode="&#x684;" horiz-adv-x="516" arabic-form="isolated" 
d="M261 474q61 0 100.5 -26t53.5 -65t22 -88t9.5 -93.5t12 -82.5t32.5 -53v-66h-241q-57 0 -90 -30.5t-33 -81.5q0 -53 41 -77t103 -24q41 0 86 9q5 -20 13 -60q-41 -12 -107 -12q-96 0 -147 43t-51 120q0 91 59.5 133.5t149.5 42.5h145l4 4q-19 18 -28.5 52.5t-10.5 71.5
t-5.5 76.5t-13.5 71t-35 51.5t-68 20q-64 0 -129 -36l-25 53q76 47 153 47zM345 -159h-49v52h49v-52zM345 -89h-49v52h49v-52z" />
    <glyph glyph-name="uni0685.init" unicode="&#x685;" horiz-adv-x="474" 
d="M0 0q-16 0 -25 9t-9 23t9 22t25 8h377l3 4q-27 28 -34 105q-13 133 -27 172q-26 67 -99 67q-65 0 -129 -36q-11 24 -26 53q76 47 154 47q61 0 100 -26t53.5 -65.5t22.5 -88.5t9 -93t12 -82t33 -53v-66h-449zM321 555h-68v70h68v-70zM222 555h-68v70h68v-70zM272 659h-69
v70h69v-70z" />
    <glyph glyph-name="uni0685.medi" unicode="&#x685;" horiz-adv-x="482" 
d="M482 0h-482q-34 0 -34 31q0 14 9 22.5t25 8.5h377l3 4q-25 25 -34 106q-5 48 -8.5 73.5t-10 57.5t-14.5 48t-20.5 31.5t-30.5 21.5t-42 6q-65 0 -129 -36q-11 24 -26 53q76 47 154 47q56 0 93.5 -22.5t53.5 -59t24.5 -80.5t12 -88t9 -80.5t21.5 -59t45 -22.5h4v-62z
M325 555h-68v70h68v-70zM226 555h-68v70h68v-70zM276 659h-69v70h69v-70z" />
    <glyph glyph-name="uni0685.fina" unicode="&#x685;" horiz-adv-x="524" 
d="M419 62l3 4q-25 25 -34 106q-5 48 -8.5 73.5t-10 57.5t-14.5 48t-20.5 31.5t-30.5 21.5t-42 6q-64 0 -129 -36q-11 24 -26 53q76 47 154 47q77 0 118 -42.5t51 -103t14 -121t20 -103t56 -42.5h4v-62h-274q-57 0 -90 -30.5t-33 -81.5q0 -53 41 -77t103 -24q41 0 86 9
q5 -20 13 -60q-41 -12 -107 -12q-97 0 -147.5 43t-50.5 122q0 85 56.5 129t138.5 44h159zM341 555h-68v70h68v-70zM242 555h-68v70h68v-70zM292 659h-69v70h69v-70z" />
    <glyph glyph-name="uni0686" unicode="&#x686;" horiz-adv-x="516" arabic-form="isolated" 
d="M261 474q61 0 100.5 -26t53.5 -65t22 -88t9.5 -93.5t12 -82.5t32.5 -53v-66h-241q-57 0 -90 -30.5t-33 -81.5q0 -53 41 -77t103 -24q41 0 86 9q5 -20 13 -60q-41 -12 -107 -12q-96 0 -147 43t-51 120q0 91 59.5 133.5t149.5 42.5h145l4 4q-19 18 -28.5 52.5t-10.5 71.5
t-5.5 76.5t-13.5 71t-35 51.5t-68 20q-64 0 -129 -36l-25 53q76 47 153 47zM329 -36h49v-52h-49v52zM263 -36h49v-52h-49v52zM296 -107h49v-52h-49v52z" />
    <glyph glyph-name="uni0687" unicode="&#x687;" horiz-adv-x="516" arabic-form="isolated" 
d="M261 474q61 0 100.5 -26t53.5 -65t22 -88t9.5 -93.5t12 -82.5t32.5 -53v-66h-241q-57 0 -90 -30.5t-33 -81.5q0 -53 41 -77t103 -24q41 0 86 9q5 -20 13 -60q-41 -12 -107 -12q-96 0 -147 43t-51 120q0 91 59.5 133.5t149.5 42.5h145l4 4q-19 18 -28.5 52.5t-10.5 71.5
t-5.5 76.5t-13.5 71t-35 51.5t-68 20q-64 0 -129 -36l-25 53q76 47 153 47zM378 -158h-49v52h49v-52zM312 -158h-49v52h49v-52zM378 -88h-49v52h49v-52zM312 -88h-49v52h49v-52z" />
    <glyph glyph-name="uni0688" unicode="&#x688;" horiz-adv-x="486" arabic-form="isolated" 
d="M245 410q-77 0 -134 -41l-33 50q71 55 166 55q182 0 182 -184v-290h-361v62h302v208q0 73 -29 106.5t-93 33.5zM288 703q29 0 47.5 -16.5t18.5 -46.5v-85h-224v40h35v145h40v-74h3q33 37 80 37zM275 663q-26 0 -47 -21t-21 -47h106v22q0 46 -38 46z" />
    <glyph glyph-name="uni0689.fina" unicode="&#x689;" horiz-adv-x="486" 
d="M164 -27q0 17 5 27h-104v62h302v208q0 73 -28.5 106.5t-93.5 33.5q-77 0 -134 -41l-33 50q71 55 166 55q182 0 182 -184v-228h60v-62h-178q5 -13 5 -27q0 -31 -20.5 -53t-53.5 -22q-32 0 -53.5 22t-21.5 53zM199 -27q0 -17 10.5 -29t29.5 -12q18 0 28.5 12t10.5 29
q0 16 -11 27h-57q-11 -11 -11 -27z" />
    <glyph glyph-name="uni068A.fina" unicode="&#x68a;" horiz-adv-x="486" 
d="M245 410q-77 0 -134 -41l-33 50q71 55 166 55q182 0 182 -184v-228h60v-62h-421v62h302v208q0 73 -28.5 106.5t-93.5 33.5zM272 -151h-69v70h69v-70z" />
    <glyph glyph-name="uni068B.fina" unicode="&#x68b;" horiz-adv-x="486" 
d="M245 410q-77 0 -134 -41l-33 50q71 55 166 55q182 0 182 -184v-228h60v-62h-421v62h302v208q0 73 -28.5 106.5t-93.5 33.5zM272 -151h-69v70h69v-70zM288 703q29 0 47.5 -16.5t18.5 -46.5v-85h-224v40h35v145h40v-74h3q33 37 80 37zM275 663q-26 0 -47 -21t-21 -47h106
v22q0 46 -38 46z" />
    <glyph glyph-name="uni068C" unicode="&#x68c;" horiz-adv-x="486" arabic-form="isolated" 
d="M245 410q-77 0 -134 -41l-33 50q71 55 166 55q182 0 182 -184v-290h-361v62h302v208q0 73 -29 106.5t-93 33.5zM321 555h-68v70h68v-70zM222 555h-68v70h68v-70z" />
    <glyph glyph-name="uni068D" unicode="&#x68d;" horiz-adv-x="486" arabic-form="isolated" 
d="M245 410q-77 0 -134 -41l-33 50q71 55 166 55q182 0 182 -184v-290h-361v62h302v208q0 73 -29 106.5t-93 33.5zM321 -151h-68v70h68v-70zM222 -151h-68v70h68v-70z" />
    <glyph glyph-name="uni068E" unicode="&#x68e;" horiz-adv-x="486" arabic-form="isolated" 
d="M245 410q-77 0 -134 -41l-33 50q71 55 166 55q182 0 182 -184v-290h-361v62h302v208q0 73 -29 106.5t-93 33.5zM321 555h-68v70h68v-70zM222 555h-68v70h68v-70zM272 659h-69v70h69v-70z" />
    <glyph glyph-name="uni068F.fina" unicode="&#x68f;" horiz-adv-x="486" 
d="M245 410q-77 0 -134 -41l-33 50q71 55 166 55q182 0 182 -184v-228h60v-62h-421v62h302v208q0 73 -28.5 106.5t-93.5 33.5zM253 727h68v-69h-68v69zM154 727h68v-69h-68v69zM203 623h69v-69h-69v69z" />
    <glyph glyph-name="uni0690.fina" unicode="&#x690;" horiz-adv-x="486" 
d="M245 410q-77 0 -134 -41l-33 50q71 55 166 55q182 0 182 -184v-228h60v-62h-421v62h302v208q0 73 -28.5 106.5t-93.5 33.5zM321 555h-68v70h68v-70zM222 555h-68v70h68v-70zM321 659h-68v70h68v-70zM222 659h-68v70h68v-70z" />
    <glyph glyph-name="uni0691" unicode="&#x691;" horiz-adv-x="192" arabic-form="isolated" 
d="M-50 -144q67 5 95 40.5t28 110.5v380h59v-385q0 -98 -42 -150t-140 -57v61zM142 618q29 0 47.5 -16.5t18.5 -46.5v-85h-224v40h35v145h40v-74h3q33 37 80 37zM129 578q-26 0 -47 -21t-21 -47h106v22q0 46 -38 46z" />
    <glyph glyph-name="uni0692.fina" unicode="&#x692;" horiz-adv-x="192" 
d="M132 387v-325h60v-62h-60v-33q0 -75 -48 -121t-134 -51v62q69 4 95.5 39t26.5 111v380h60zM76 470l-80 151l27 14l73 -107l74 107l27 -16l-81 -149h-40z" />
    <glyph glyph-name="uni0693.fina" unicode="&#x693;" horiz-adv-x="192" 
d="M6 -199v3q-33 -8 -56 -9v62q69 4 95.5 39t26.5 111v380h60v-325h60v-62h-60v-33q0 -52 -27 -95q22 -8 36 -27.5t14 -43.5q0 -31 -20.5 -53t-53.5 -22q-32 0 -53.5 22t-21.5 53zM41 -199q0 -17 10.5 -29t29.5 -12q18 0 28.5 12t10.5 29q0 16 -11 27.5t-28 11.5h-4
q-17 -13 -32 -21q-4 -7 -4 -18z" />
    <glyph glyph-name="uni0694.fina" unicode="&#x694;" horiz-adv-x="192" 
d="M132 387v-325h60v-62h-60v-33q0 -75 -48 -121t-134 -51v62q69 4 95.5 39t26.5 111v380h60zM129 -284h-69v70h69v-70z" />
    <glyph glyph-name="uni0695.fina" unicode="&#x695;" horiz-adv-x="192" 
d="M132 387v-325h60v-62h-60v-33q0 -75 -48 -121t-134 -51v62q69 4 95.5 39t26.5 111v380h60zM76 -377l-80 151l27 14l73 -107l74 107l27 -16l-81 -149h-40z" />
    <glyph glyph-name="uni0696.fina" unicode="&#x696;" horiz-adv-x="192" 
d="M132 387v-325h60v-62h-60v-33q0 -75 -48 -121t-134 -51v62q69 4 95.5 39t26.5 111v380h60zM22 -55h-69v70h69v-70zM126 -283h-69v70h69v-70z" />
    <glyph glyph-name="uni0697.fina" unicode="&#x697;" horiz-adv-x="192" 
d="M132 387v-325h60v-62h-60v-33q0 -75 -48 -121t-134 -51v62q69 4 95.5 39t26.5 111v380h60zM180 470h-68v70h68v-70zM81 470h-68v70h68v-70z" />
    <glyph glyph-name="uni0698" unicode="&#x698;" horiz-adv-x="192" arabic-form="isolated" 
d="M-50 -144q67 5 95 40.5t28 110.5v380h59v-385q0 -98 -42 -150t-140 -57v61zM180 470h-68v70h68v-70zM81 470h-68v70h68v-70zM131 574h-69v70h69v-70z" />
    <glyph glyph-name="uni0699.fina" unicode="&#x699;" horiz-adv-x="192" 
d="M132 387v-325h60v-62h-60v-33q0 -75 -48 -121t-134 -51v62q69 4 95.5 39t26.5 111v380h60zM180 470h-68v70h68v-70zM81 470h-68v70h68v-70zM180 574h-68v70h68v-70zM81 574h-68v70h68v-70z" />
    <glyph glyph-name="uni069A.init" unicode="&#x69a;" horiz-adv-x="792" 
d="M0 0q-15 0 -24.5 9t-9.5 23q0 12 9.5 21t24.5 9h185v325h58v-325h37q66 0 98.5 40.5t32.5 110.5v174h58v-203q0 -132 100 -132q51 0 76.5 41.5t25.5 104.5q0 68 -25.5 138.5t-70.5 118.5l47 39q110 -123 110 -294q0 -89 -39.5 -148t-123.5 -59q-48 0 -84.5 22.5
t-51.5 62.5h-4q-24 -47 -68 -62.5t-116 -15.5h-245zM475 555h-69v70h69v-70zM475 -151h-69v70h69v-70z" />
    <glyph glyph-name="uni069A.medi" unicode="&#x69a;" horiz-adv-x="804" 
d="M569 -8q-47 0 -83 22.5t-52 62.5h-4q-44 -77 -150 -77h-280q-16 0 -25.5 8.5t-9.5 22.5t9.5 23t25.5 9h185v324h59v-324h36q131 0 131 150v174h58v-203q0 -132 100 -132q51 0 76.5 41.5t25.5 104.5q0 68 -25.5 138.5t-70.5 118.5l47 39q109 -122 110 -293q0 -19 -2 -33
q-7 -102 74 -105v-63q-81 1 -103 61h-3q-42 -69 -129 -69zM475 555h-69v70h69v-70zM475 -151h-69v70h69v-70z" />
    <glyph glyph-name="uni069A.fina" unicode="&#x69a;" horiz-adv-x="1011" 
d="M776 -7q-47 0 -82.5 22.5t-52.5 61.5h-4q-44 -77 -150 -77h-37v-11q0 -86 -53 -140t-141 -54q-94 0 -142.5 50.5t-48.5 141.5v295h58v-277q0 -146 133 -146q68 0 102 40t34 106v382h58v-325h37q131 0 131 151v174h58v-203q0 -132 100 -132q51 0 76.5 41.5t25.5 104.5
q0 68 -25.5 138t-70.5 118l47 40q45 -51 77 -126.5t33 -166.5q0 -10 -1 -25t-1 -19q0 -44 16.5 -68.5t57.5 -25.5v-63q-81 1 -103 61h-3q-41 -68 -129 -68zM675 -151h-69v70h69v-70zM675 555h-69v70h69v-70z" />
    <glyph glyph-name="uni069B.init" unicode="&#x69b;" horiz-adv-x="792" 
d="M0 0q-15 0 -24.5 9t-9.5 23q0 12 9.5 21t24.5 9h185v325h58v-325h37q66 0 98.5 40.5t32.5 110.5v174h58v-203q0 -132 100 -132q51 0 76.5 41.5t25.5 104.5q0 68 -25.5 138.5t-70.5 118.5l47 39q110 -123 110 -294q0 -89 -39.5 -148t-123.5 -59q-48 0 -84.5 22.5
t-51.5 62.5h-4q-24 -47 -68 -62.5t-116 -15.5h-245zM456 -81h68v-69h-68v69zM357 -81h68v-69h-68v69zM406 -185h69v-69h-69v69z" />
    <glyph glyph-name="uni069B.medi" unicode="&#x69b;" horiz-adv-x="804" 
d="M569 -8q-47 0 -83 22.5t-52 62.5h-4q-44 -77 -150 -77h-280q-16 0 -25.5 8.5t-9.5 22.5t9.5 23t25.5 9h185v324h59v-324h36q131 0 131 150v174h58v-203q0 -132 100 -132q51 0 76.5 41.5t25.5 104.5q0 68 -25.5 138.5t-70.5 118.5l47 39q109 -122 110 -293q0 -19 -2 -33
q-7 -102 74 -105v-63q-81 1 -103 61h-3q-42 -69 -129 -69zM456 -81h68v-69h-68v69zM357 -81h68v-69h-68v69zM406 -185h69v-69h-69v69z" />
    <glyph glyph-name="uni069B.fina" unicode="&#x69b;" horiz-adv-x="1011" 
d="M776 -7q-47 0 -82.5 22.5t-52.5 61.5h-4q-44 -77 -150 -77h-37v-11q0 -86 -53 -140t-141 -54q-94 0 -142.5 50.5t-48.5 141.5v295h58v-277q0 -146 133 -146q68 0 102 40t34 106v382h58v-325h37q131 0 131 151v174h58v-203q0 -132 100 -132q51 0 76.5 41.5t25.5 104.5
q0 68 -25.5 138t-70.5 118l47 40q45 -51 77 -126.5t33 -166.5q0 -10 -1 -25t-1 -19q0 -44 16.5 -68.5t57.5 -25.5v-63q-81 1 -103 61h-3q-41 -68 -129 -68zM656 -81h68v-69h-68v69zM557 -81h68v-69h-68v69zM606 -185h69v-69h-69v69z" />
    <glyph glyph-name="uni069C.init" unicode="&#x69c;" horiz-adv-x="792" 
d="M0 0q-15 0 -24.5 9t-9.5 23q0 12 9.5 21t24.5 9h185v325h58v-325h37q66 0 98.5 40.5t32.5 110.5v174h58v-203q0 -132 100 -132q51 0 76.5 41.5t25.5 104.5q0 68 -25.5 138.5t-70.5 118.5l47 39q110 -123 110 -294q0 -89 -39.5 -148t-123.5 -59q-48 0 -84.5 22.5
t-51.5 62.5h-4q-24 -47 -68 -62.5t-116 -15.5h-245zM522 555h-68v70h68v-70zM423 555h-68v70h68v-70zM473 659h-69v70h69v-70zM456 -81h68v-69h-68v69zM357 -81h68v-69h-68v69zM406 -185h69v-69h-69v69z" />
    <glyph glyph-name="uni069C.medi" unicode="&#x69c;" horiz-adv-x="804" 
d="M569 -8q-47 0 -83 22.5t-52 62.5h-4q-44 -77 -150 -77h-280q-16 0 -25.5 8.5t-9.5 22.5t9.5 23t25.5 9h185v324h59v-324h36q131 0 131 150v174h58v-203q0 -132 100 -132q51 0 76.5 41.5t25.5 104.5q0 68 -25.5 138.5t-70.5 118.5l47 39q109 -122 110 -293q0 -19 -2 -33
q-7 -102 74 -105v-63q-81 1 -103 61h-3q-42 -69 -129 -69zM522 555h-68v70h68v-70zM423 555h-68v70h68v-70zM473 659h-69v70h69v-70zM456 -81h68v-69h-68v69zM357 -81h68v-69h-68v69zM406 -185h69v-69h-69v69z" />
    <glyph glyph-name="uni069C.fina" unicode="&#x69c;" horiz-adv-x="1011" 
d="M776 -7q-47 0 -82.5 22.5t-52.5 61.5h-4q-44 -77 -150 -77h-37v-11q0 -86 -53 -140t-141 -54q-94 0 -142.5 50.5t-48.5 141.5v295h58v-277q0 -146 133 -146q68 0 102 40t34 106v382h58v-325h37q131 0 131 151v174h58v-203q0 -132 100 -132q51 0 76.5 41.5t25.5 104.5
q0 68 -25.5 138t-70.5 118l47 40q45 -51 77 -126.5t33 -166.5q0 -10 -1 -25t-1 -19q0 -44 16.5 -68.5t57.5 -25.5v-63q-81 1 -103 61h-3q-41 -68 -129 -68zM656 -82h68v-69h-68v69zM557 -82h68v-69h-68v69zM606 -186h69v-69h-69v69zM724 555h-68v70h68v-70zM625 555h-68v70
h68v-70zM675 659h-69v70h69v-70z" />
    <glyph glyph-name="uni069D.init" unicode="&#x69d;" horiz-adv-x="636" 
d="M123 313h5q46 74 115 117t148 43q185 0 185 -185v-288h-576q-14 0 -24 8.5t-10 21.5t10 22.5t24 9.5h65v380h58v-129zM123 113v-51h394v206q0 71 -31.5 106t-101.5 35q-79 0 -140.5 -47.5t-91 -114t-29.5 -134.5zM402 -151h-68v70h68v-70zM303 -151h-68v70h68v-70z" />
    <glyph glyph-name="uni069D.medi" unicode="&#x69d;" horiz-adv-x="636" 
d="M123 315h5q47 74 115 116t148 42q185 0 185 -185v-226h60v-62h-636q-14 0 -24 8.5t-10 21.5t10 22.5t24 9.5h65v380h58v-127zM123 113v-51h394v206q0 71 -31.5 106t-101.5 35q-79 0 -140.5 -47.5t-91 -114t-29.5 -134.5zM402 -151h-68v70h68v-70zM303 -151h-68v70h68v-70
z" />
    <glyph glyph-name="uni069D.fina" unicode="&#x69d;" horiz-adv-x="970" 
d="M398 5v437h59v-126h4q45 73 114.5 115t149.5 42q185 0 185 -185v-226h60v-62h-513v-11q0 -85 -55 -139.5t-143 -54.5q-94 0 -144 51t-50 141v295h58v-277q0 -70 34 -108t102 -38q69 0 104 40.5t35 105.5zM457 113v-51h393v206q0 71 -31.5 106t-101.5 35
q-79 0 -140.5 -47.5t-90.5 -114t-29 -134.5zM746 -151h-68v70h68v-70zM647 -151h-68v70h68v-70z" />
    <glyph glyph-name="uni069E.init" unicode="&#x69e;" horiz-adv-x="636" 
d="M123 313h5q46 74 115 117t148 43q185 0 185 -185v-288h-576q-14 0 -24 8.5t-10 21.5t10 22.5t24 9.5h65v380h58v-129zM123 113v-51h394v206q0 71 -31.5 106t-101.5 35q-79 0 -140.5 -47.5t-91 -114t-29.5 -134.5zM402 555h-68v70h68v-70zM303 555h-68v70h68v-70zM353 659
h-69v70h69v-70z" />
    <glyph glyph-name="uni069E.medi" unicode="&#x69e;" horiz-adv-x="636" 
d="M123 315h5q47 74 115 116t148 42q185 0 185 -185v-226h60v-62h-636q-14 0 -24 8.5t-10 21.5t10 22.5t24 9.5h65v380h58v-127zM123 113v-51h394v206q0 71 -31.5 106t-101.5 35q-79 0 -140.5 -47.5t-91 -114t-29.5 -134.5zM402 555h-68v70h68v-70zM303 555h-68v70h68v-70z
M353 659h-69v70h69v-70z" />
    <glyph glyph-name="uni069E.fina" unicode="&#x69e;" horiz-adv-x="970" 
d="M398 5v437h59v-126h4q45 73 114.5 115t149.5 42q185 0 185 -185v-226h60v-62h-513v-11q0 -85 -55 -139.5t-143 -54.5q-94 0 -144 51t-50 141v295h58v-277q0 -70 34 -108t102 -38q69 0 104 40.5t35 105.5zM457 113v-51h393v206q0 71 -31.5 106t-101.5 35
q-79 0 -140.5 -47.5t-90.5 -114t-29 -134.5zM759 555h-68v70h68v-70zM660 555h-68v70h68v-70zM710 659h-69v70h69v-70z" />
    <glyph glyph-name="uni069F.medi" unicode="&#x69f;" horiz-adv-x="636" 
d="M0 0q-14 0 -24 8.5t-10 21.5t10 22.5t24 9.5h65v664h58v-405h5q47 69 116 110.5t147 41.5q185 0 185 -185v-226h60v-62h-636zM123 113v-51h394v206q0 71 -31.5 106t-101.5 35q-79 0 -140.5 -47.5t-91 -114t-29.5 -134.5zM402 555h-68v70h68v-70zM303 555h-68v70h68v-70z
M353 659h-69v70h69v-70z" />
    <glyph glyph-name="uni069F.fina" unicode="&#x69f;" horiz-adv-x="736" 
d="M50 0v63h114v663h59v-401h5q103 148 263 148q185 0 185 -185v-225h60v-63h-686zM223 114v-51h394v205q0 71 -31.5 106.5t-101.5 35.5q-79 0 -140.5 -47.5t-91 -114t-29.5 -134.5zM533 555h-68v70h68v-70zM434 555h-68v70h68v-70zM484 659h-69v70h69v-70z" />
    <glyph glyph-name="uni06A0.init" unicode="&#x6a0;" horiz-adv-x="505" 
d="M-34 31q0 14 9.5 23t24.5 9h123l3 4q-61 44 -61 170q0 104 56.5 170.5t156.5 66.5q95 0 167 -67l-42 -49q-52 51 -127 51q-66 0 -106 -45t-40 -132q0 -169 161 -169h140v-63h-431q-15 0 -24.5 8.5t-9.5 22.5zM336 555h-68v70h68v-70zM237 555h-68v70h68v-70zM287 659h-69
v70h69v-70z" />
    <glyph glyph-name="uni06A0.medi" unicode="&#x6a0;" horiz-adv-x="557" 
d="M-34 30q0 14 10 23.5t24 9.5h53q100 0 167 29q-77 51 -116 109.5t-39 107.5q0 79 62 122t162 43q53 0 98 -14.5t77.5 -52t32.5 -93.5t-41 -116.5t-107 -102.5q78 -32 181 -32h27v-63h-30q-132 0 -244 55q-102 -55 -249 -55h-34q-14 0 -24 8.5t-10 21.5zM289 122
q78 49 111.5 98.5t33.5 88.5q0 43 -36.5 72t-111.5 29q-76 0 -115 -29t-39 -77q0 -37 41.5 -88.5t115.5 -93.5zM362 555h-68v70h68v-70zM263 555h-68v70h68v-70zM313 659h-69v70h69v-70z" />
    <glyph glyph-name="uni06A0.fina" unicode="&#x6a0;" horiz-adv-x="591" 
d="M104 317q0 75 55.5 116t149.5 41q41 0 78.5 -8.5t70.5 -26t52.5 -49.5t19.5 -75q0 -103 -184 -204q40 -21 104 -34.5t128 -13.5h13v-63h-12q-80 0 -162 21.5t-129 50.5q-72 -48 -115.5 -93t-43.5 -95q0 -44 45 -71t118 -27q51 0 89 8l12 -58q-43 -13 -110 -13
q-105 0 -161.5 44t-56.5 114q0 114 171 227q-65 50 -98.5 105.5t-33.5 103.5zM302 411q-63 0 -98.5 -27t-35.5 -71q0 -38 32 -83t94 -88q95 57 134 93.5t39 75.5q0 44 -40.5 72t-124.5 28zM393 555h-68v70h68v-70zM294 555h-68v70h68v-70zM344 659h-69v70h69v-70z" />
    <glyph glyph-name="uni06A1.init" unicode="&#x6a1;" horiz-adv-x="520" 
d="M0 0q-16 0 -25 8.5t-9 22.5t9 22.5t25 8.5h134q48 0 73 -3q0 1 1 3q-68 18 -105.5 70.5t-37.5 134.5q0 87 52.5 147t145.5 60q96 0 146.5 -62t50.5 -172q0 -115 -49 -177.5t-144 -62.5h-267zM398 243q0 169 -135 169q-67 0 -101 -43.5t-34 -104.5q0 -156 209 -181
q61 38 61 160z" />
    <glyph glyph-name="uni06A1.medi" unicode="&#x6a1;" horiz-adv-x="526" 
d="M-35 32q0 13 10 22t25 9h141q20 0 46 -2l1 4q-50 21 -86.5 73.5t-36.5 125.5q0 93 52.5 151.5t144.5 58.5q96 0 150 -61t54 -166q0 -59 -20 -107t-48 -73l2 -4h126v-63h-526q-15 0 -25 9t-10 23zM263 413q-64 0 -99.5 -40.5t-35.5 -100.5q0 -82 51 -134t147 -69
q78 52 78 174q0 80 -37.5 125t-103.5 45z" />
    <glyph glyph-name="uni06A1.fina" unicode="&#x6a1;" horiz-adv-x="842" 
d="M842 0h-500q-140 0 -208.5 66t-68.5 226v60h62v-75q0 -214 200 -214h130q20 0 46 -2l1 4q-50 21 -86.5 73.5t-36.5 125.5q0 93 52.5 151.5t144.5 58.5q96 0 150 -61t54 -166q0 -59 -20 -107t-48 -73l2 -4h126v-63zM579 413q-64 0 -99.5 -40.5t-35.5 -100.5q0 -82 51 -134
t147 -69q78 52 78 174q0 80 -37.5 125t-103.5 45z" />
    <glyph glyph-name="uni06A2.init" unicode="&#x6a2;" horiz-adv-x="520" 
d="M0 0q-16 0 -25 8.5t-9 22.5t9 22.5t25 8.5h134q48 0 73 -3q0 1 1 3q-68 18 -105.5 70.5t-37.5 134.5q0 87 52.5 147t145.5 60q96 0 146.5 -62t50.5 -172q0 -115 -49 -177.5t-144 -62.5h-267zM398 243q0 169 -135 169q-67 0 -101 -43.5t-34 -104.5q0 -156 209 -181
q61 38 61 160zM295 -151h-69v70h69v-70z" />
    <glyph glyph-name="uni06A2.medi" unicode="&#x6a2;" horiz-adv-x="526" 
d="M-35 32q0 13 10 22t25 9h141q20 0 46 -2l1 4q-50 21 -86.5 73.5t-36.5 125.5q0 93 52.5 151.5t144.5 58.5q96 0 150 -61t54 -166q0 -59 -20 -107t-48 -73l2 -4h126v-63h-526q-15 0 -25 9t-10 23zM263 413q-64 0 -99.5 -40.5t-35.5 -100.5q0 -82 51 -134t147 -69
q78 52 78 174q0 80 -37.5 125t-103.5 45zM298 -151h-69v70h69v-70z" />
    <glyph glyph-name="uni06A2.fina" unicode="&#x6a2;" horiz-adv-x="842" 
d="M842 0h-500q-140 0 -208.5 66t-68.5 226v60h62v-75q0 -214 200 -214h130q20 0 46 -2l1 4q-50 21 -86.5 73.5t-36.5 125.5q0 93 52.5 151.5t144.5 58.5q96 0 150 -61t54 -166q0 -59 -20 -107t-48 -73l2 -4h126v-63zM579 413q-64 0 -99.5 -40.5t-35.5 -100.5q0 -82 51 -134
t147 -69q78 52 78 174q0 80 -37.5 125t-103.5 45zM614 -151h-69v70h69v-70z" />
    <glyph glyph-name="uni06A3.init" unicode="&#x6a3;" horiz-adv-x="520" 
d="M0 0q-16 0 -25 8.5t-9 22.5t9 22.5t25 8.5h134q48 0 73 -3q0 1 1 3q-68 18 -105.5 70.5t-37.5 134.5q0 87 52.5 147t145.5 60q96 0 146.5 -62t50.5 -172q0 -115 -49 -177.5t-144 -62.5h-267zM398 243q0 169 -135 169q-67 0 -101 -43.5t-34 -104.5q0 -156 209 -181
q61 38 61 160zM295 -151h-69v70h69v-70zM295 555h-69v70h69v-70z" />
    <glyph glyph-name="uni06A3.medi" unicode="&#x6a3;" horiz-adv-x="526" 
d="M-35 32q0 13 10 22t25 9h141q20 0 46 -2l1 4q-50 21 -86.5 73.5t-36.5 125.5q0 93 52.5 151.5t144.5 58.5q96 0 150 -61t54 -166q0 -59 -20 -107t-48 -73l2 -4h126v-63h-526q-15 0 -25 9t-10 23zM263 413q-64 0 -99.5 -40.5t-35.5 -100.5q0 -82 51 -134t147 -69
q78 52 78 174q0 80 -37.5 125t-103.5 45zM298 -151h-69v70h69v-70zM298 555h-69v70h69v-70z" />
    <glyph glyph-name="uni06A3.fina" unicode="&#x6a3;" horiz-adv-x="842" 
d="M842 0h-500q-140 0 -208.5 66t-68.5 226v60h62v-75q0 -214 200 -214h130q20 0 46 -2l1 4q-50 21 -86.5 73.5t-36.5 125.5q0 93 52.5 151.5t144.5 58.5q96 0 150 -61t54 -166q0 -59 -20 -107t-48 -73l2 -4h126v-63zM579 413q-64 0 -99.5 -40.5t-35.5 -100.5q0 -82 51 -134
t147 -69q78 52 78 174q0 80 -37.5 125t-103.5 45zM614 555h-69v70h69v-70zM614 -151h-69v70h69v-70z" />
    <glyph glyph-name="uni06A4" unicode="&#x6a4;" horiz-adv-x="836" arabic-form="isolated" 
d="M381 267q0 87 52.5 147t145.5 60q96 0 146.5 -62t50.5 -172q0 -115 -49 -177.5t-144 -62.5h-241q-197 0 -254 131q-23 53 -23 185v36h62v-75q0 -215 200 -215h123q48 0 73 -3q0 1 0.5 2t0.5 2q-68 18 -105.5 70t-37.5 134zM714 243q0 169 -136 169q-66 0 -100 -43.5
t-34 -104.5q0 -157 209 -182q61 37 61 161zM663 555h-68v70h68v-70zM564 555h-68v70h68v-70zM614 659h-69v70h69v-70z" />
    <glyph glyph-name="uni06A5.init" unicode="&#x6a5;" horiz-adv-x="520" 
d="M0 0q-16 0 -25 8.5t-9 22.5t9 22.5t25 8.5h134q48 0 73 -3q0 1 1 3q-68 18 -105.5 70.5t-37.5 134.5q0 87 52.5 147t145.5 60q96 0 146.5 -62t50.5 -172q0 -115 -49 -177.5t-144 -62.5h-267zM398 243q0 169 -135 169q-67 0 -101 -43.5t-34 -104.5q0 -156 209 -181
q61 38 61 160zM276 -81h68v-69h-68v69zM177 -81h68v-69h-68v69zM226 -185h69v-69h-69v69z" />
    <glyph glyph-name="uni06A5.medi" unicode="&#x6a5;" horiz-adv-x="526" 
d="M-35 32q0 13 10 22t25 9h141q20 0 46 -2l1 4q-50 21 -86.5 73.5t-36.5 125.5q0 93 52.5 151.5t144.5 58.5q96 0 150 -61t54 -166q0 -59 -20 -107t-48 -73l2 -4h126v-63h-526q-15 0 -25 9t-10 23zM263 413q-64 0 -99.5 -40.5t-35.5 -100.5q0 -82 51 -134t147 -69
q78 52 78 174q0 80 -37.5 125t-103.5 45zM279 -81h68v-69h-68v69zM180 -81h68v-69h-68v69zM229 -185h69v-69h-69v69z" />
    <glyph glyph-name="uni06A5.fina" unicode="&#x6a5;" horiz-adv-x="842" 
d="M842 0h-500q-140 0 -208.5 66t-68.5 226v60h62v-75q0 -214 200 -214h130q20 0 46 -2l1 4q-50 21 -86.5 73.5t-36.5 125.5q0 93 52.5 151.5t144.5 58.5q96 0 150 -61t54 -166q0 -59 -20 -107t-48 -73l2 -4h126v-63zM579 413q-64 0 -99.5 -40.5t-35.5 -100.5q0 -82 51 -134
t147 -69q78 52 78 174q0 80 -37.5 125t-103.5 45zM595 -81h68v-69h-68v69zM496 -81h68v-69h-68v69zM545 -185h69v-69h-69v69z" />
    <glyph glyph-name="uni06A6" unicode="&#x6a6;" horiz-adv-x="836" arabic-form="isolated" 
d="M381 267q0 87 52.5 147t145.5 60q96 0 146.5 -62t50.5 -172q0 -115 -49 -177.5t-144 -62.5h-241q-197 0 -254 131q-23 53 -23 185v36h62v-75q0 -215 200 -215h123q48 0 73 -3q0 1 0.5 2t0.5 2q-68 18 -105.5 70t-37.5 134zM714 243q0 169 -136 169q-66 0 -100 -43.5
t-34 -104.5q0 -157 209 -182q61 37 61 161zM663 555h-68v70h68v-70zM564 555h-68v70h68v-70zM663 659h-68v70h68v-70zM564 659h-68v70h68v-70z" />
    <glyph glyph-name="uni06A7.fina" unicode="&#x6a7;" horiz-adv-x="702" 
d="M702 0h-64q-9 -95 -80 -150.5t-201 -55.5q-67 0 -119 16t-84 42.5t-52.5 65t-28.5 78.5t-8 87v197h58v-162q0 -46 4.5 -81t19 -71t39.5 -59t68.5 -37.5t102.5 -14.5q199 0 218 145h-103q-110 0 -167.5 53.5t-57.5 177.5q0 114 52.5 179t155.5 65q90 0 138.5 -57
t48.5 -160v-196h60v-62zM580 62v175q0 87 -31 130.5t-98 43.5q-72 0 -107.5 -51t-35.5 -130q0 -94 41.5 -131t113.5 -37h117zM477 555h-69v70h69v-70z" />
    <glyph glyph-name="uni06A8.fina" unicode="&#x6a8;" horiz-adv-x="702" 
d="M702 0h-64q-9 -95 -80 -150.5t-201 -55.5q-67 0 -119 16t-84 42.5t-52.5 65t-28.5 78.5t-8 87v197h58v-162q0 -46 4.5 -81t19 -71t39.5 -59t68.5 -37.5t102.5 -14.5q199 0 218 145h-103q-110 0 -167.5 53.5t-57.5 177.5q0 114 52.5 179t155.5 65q90 0 138.5 -57
t48.5 -160v-196h60v-62zM580 62v175q0 87 -31 130.5t-98 43.5q-72 0 -107.5 -51t-35.5 -130q0 -94 41.5 -131t113.5 -37h117zM526 555h-68v70h68v-70zM427 555h-68v70h68v-70zM477 659h-69v70h69v-70z" />
    <glyph glyph-name="uni06A9" unicode="&#x6a9;" horiz-adv-x="780" arabic-form="isolated" 
d="M665 62v92q0 53 -14 87.5t-54 60.5l-218 139v50l359 235l29 -45q-214 -142 -322 -212l190 -123q57 -37 73 -79.5t16 -104.5v-162h-390q-144 0 -206.5 65t-62.5 185v102h58v-75q0 -106 45 -160.5t159 -54.5h338z" />
    <glyph glyph-name="uni06AA.init" unicode="&#x6aa;" horiz-adv-x="972" 
d="M-34 31q0 14 9 22.5t25 8.5h850v71q0 71 -33.5 93.5t-113.5 22.5h-638v55l194 197h85v-4l-185 -184h566q107 0 147 -38.5t40 -137.5v-137h-912q-16 0 -25 8.5t-9 22.5z" />
    <glyph glyph-name="uni06AA.medi" unicode="&#x6aa;" horiz-adv-x="972" 
d="M65 304l194 197h85v-4l-185 -184h562q104 0 147.5 -39.5t43.5 -136.5v-75h60v-62h-972q-16 0 -25 8.5t-9 22.5t9 22.5t25 8.5h850v71q0 71 -33.5 93.5t-113.5 22.5h-638v55z" />
    <glyph glyph-name="uni06AA.fina" unicode="&#x6aa;" horiz-adv-x="1072" 
d="M50 0v62h900v71q0 71 -33.5 93.5t-113.5 22.5h-638v55l194 197h85v-4l-185 -184h544q113 0 161 -39.5t48 -136.5v-75h60v-62h-1022z" />
    <glyph glyph-name="uni06AB.init" unicode="&#x6ab;" horiz-adv-x="467" 
d="M-34 31q0 14 9 23t25 9h350v91q0 53 -14 87.5t-54 60.5l-217 139v50l358 235l31 -45l-96 -63q34 -24 34 -63q0 -31 -20.5 -53t-53.5 -22q-29 0 -49.5 18t-24.5 45l-114 -74l190 -122q57 -37 73 -79.5t16 -104.5v-163h-409q-34 0 -34 31zM278 555q0 -17 10.5 -29t29.5 -12
q18 0 28.5 12t10.5 29q0 15 -10 26.5t-26 12.5l-41 -27q-2 -4 -2 -12z" />
    <glyph glyph-name="uni06AB.medi" unicode="&#x6ab;" horiz-adv-x="469" 
d="M0 0q-16 0 -25 8.5t-9 22.5t9 22.5t25 8.5h350v92q0 53 -14 87.5t-54 60.5q-42 27 -120 77t-97 62v50l358 235l31 -45l-96 -63q34 -23 34 -63q0 -31 -20.5 -53t-53.5 -22q-29 0 -49.5 18t-24.5 45q-76 -50 -114 -74l190 -123q57 -37 73 -79.5t16 -104.5v-100h60v-62h-469
zM278 555q0 -17 10.5 -29t29.5 -12q18 0 28.5 12t10.5 29q0 15 -9.5 26.5t-25.5 12.5l-42 -28q-2 -6 -2 -11z" />
    <glyph glyph-name="uni06AC.init" unicode="&#x6ac;" horiz-adv-x="467" 
d="M-34 31q0 14 9 23t25 9h350v91q0 53 -14 87.5t-54 60.5l-217 139v50l358 235l31 -45l-324 -212l190 -122q57 -37 73 -79.5t16 -104.5v-163h-409q-34 0 -34 31zM201 639h-69v70h69v-70z" />
    <glyph glyph-name="uni06AC.medi" unicode="&#x6ac;" horiz-adv-x="469" 
d="M0 0q-16 0 -25 8.5t-9 22.5t9 22.5t25 8.5h350v92q0 53 -14 87.5t-54 60.5q-42 27 -120 77t-97 62v50l358 235l31 -45q-216 -142 -324 -212l190 -123q57 -37 73 -79.5t16 -104.5v-100h60v-62h-469zM201 639h-69v70h69v-70z" />
    <glyph glyph-name="uni06AC.fina" unicode="&#x6ac;" horiz-adv-x="737" 
d="M603 726h59v-556q0 -104 75 -107v-63q-83 0 -105 62q-22 -34 -53 -48t-86 -14h-159q-144 0 -206.5 65.5t-62.5 184.5v102h59v-75q0 -106 44.5 -160t158.5 -54h166q67 0 88.5 31.5t21.5 96.5v535zM398 472q42 0 71 -20l-17 -34q-24 14 -56 14q-56 0 -56 -47q0 -44 57 -44
h72v-40h-199v40h42l1 3q-17 14 -17 44q0 33 25 58.5t77 25.5zM415 513h-69v70h69v-70z" />
    <glyph glyph-name="uni06AD" unicode="&#x6ad;" horiz-adv-x="722" arabic-form="isolated" 
d="M603 726h59v-553q0 -85 -44 -129t-125 -44h-159q-144 0 -206.5 65t-62.5 185v102h58v-76q0 -107 43 -160.5t161 -53.5h166q64 0 87 35t23 97v532zM396 472q42 0 71 -20l-17 -34q-24 14 -56 14q-56 0 -56 -47q0 -44 57 -44h72v-40h-199v40h42l1 3q-17 14 -17 44
q0 33 25 58.5t77 25.5zM464 522h-68v70h68v-70zM365 522h-68v70h68v-70zM415 626h-69v70h69v-70z" />
    <glyph glyph-name="uni06AE.init" unicode="&#x6ae;" horiz-adv-x="467" 
d="M-34 31q0 14 9 23t25 9h350v91q0 53 -14 87.5t-54 60.5l-217 139v50l358 235l31 -45l-324 -212l190 -122q57 -37 73 -79.5t16 -104.5v-163h-409q-34 0 -34 31zM247 -81h68v-69h-68v69zM148 -81h68v-69h-68v69zM197 -185h69v-69h-69v69z" />
    <glyph glyph-name="uni06AE.medi" unicode="&#x6ae;" horiz-adv-x="469" 
d="M0 0q-16 0 -25 8.5t-9 22.5t9 22.5t25 8.5h350v92q0 53 -14 87.5t-54 60.5q-42 27 -120 77t-97 62v50l358 235l31 -45q-216 -142 -324 -212l190 -123q57 -37 73 -79.5t16 -104.5v-100h60v-62h-469zM247 -81h68v-69h-68v69zM148 -81h68v-69h-68v69zM197 -185h69v-69h-69
v69z" />
    <glyph glyph-name="uni06AE.fina" unicode="&#x6ae;" horiz-adv-x="737" 
d="M603 726h59v-556q0 -104 75 -107v-63q-83 0 -105 62q-22 -34 -53 -48t-86 -14h-159q-144 0 -206.5 65.5t-62.5 184.5v102h59v-75q0 -106 44.5 -160t158.5 -54h166q67 0 88.5 31.5t21.5 96.5v535zM398 472q42 0 71 -20l-17 -34q-24 14 -56 14q-56 0 -56 -47q0 -44 57 -44
h72v-40h-199v40h42l1 3q-17 14 -17 44q0 33 25 58.5t77 25.5zM383 -81h68v-69h-68v69zM284 -81h68v-69h-68v69zM333 -185h69v-69h-69v69z" />
    <glyph glyph-name="uni06AF" unicode="&#x6af;" horiz-adv-x="780" arabic-form="isolated" 
d="M665 62v92q0 53 -14 87.5t-54 60.5l-218 139v50l359 235l29 -45q-214 -142 -322 -212l190 -123q57 -37 73 -79.5t16 -104.5v-162h-390q-144 0 -206.5 65t-62.5 185v102h58v-75q0 -106 45 -160.5t159 -54.5h338zM661 803l22 -36l-361 -238l-23 35z" />
    <glyph glyph-name="uni06B0.init" unicode="&#x6b0;" horiz-adv-x="467" 
d="M-34 31q0 14 9 23t25 9h350v91q0 53 -14 87.5t-54 60.5l-217 139v50l358 235l31 -45l-96 -63q34 -24 34 -63q0 -31 -20.5 -53t-53.5 -22q-29 0 -49.5 18t-24.5 45l-114 -74l190 -122q57 -37 73 -79.5t16 -104.5v-163h-409q-34 0 -34 31zM379 810l22 -36l-361 -238l-23 35
zM278 555q0 -17 10.5 -29t29.5 -12q18 0 28.5 12t10.5 29q0 15 -10 26.5t-26 12.5l-41 -27q-2 -4 -2 -12z" />
    <glyph glyph-name="uni06B0.medi" unicode="&#x6b0;" horiz-adv-x="469" 
d="M0 0q-16 0 -25 8.5t-9 22.5t9 22.5t25 8.5h350v92q0 53 -14 87.5t-54 60.5q-42 27 -120 77t-97 62v50l358 235l31 -45l-96 -63q34 -23 34 -63q0 -31 -20.5 -53t-53.5 -22q-29 0 -49.5 18t-24.5 45q-76 -50 -114 -74l190 -123q57 -37 73 -79.5t16 -104.5v-100h60v-62h-469
zM379 810l22 -36l-361 -238l-23 35zM278 555q0 -17 10.5 -29t29.5 -12q18 0 28.5 12t10.5 29q0 15 -9.5 26.5t-25.5 12.5l-42 -28q-2 -6 -2 -11z" />
    <glyph glyph-name="uni06B0.fina" unicode="&#x6b0;" horiz-adv-x="786" 
d="M665 62v92q0 53 -14 87.5t-54 60.5l-218 139v50l359 235l29 -45l-96 -64q32 -24 32 -62q0 -31 -20.5 -53t-53.5 -22q-29 0 -49 17.5t-25 43.5l-110 -72l190 -123q57 -37 73 -79.5t16 -104.5v-100h62v-62h-452q-144 0 -206.5 65t-62.5 185v102h58v-75q0 -106 45 -160.5
t159 -54.5h338zM661 803l22 -36l-361 -238l-23 35zM589 555q0 -17 10.5 -29t29.5 -12q18 0 28.5 12t10.5 29q0 14 -9 25t-24 13l-45 -30q-1 -3 -1 -8z" />
    <glyph glyph-name="uni06B1" unicode="&#x6b1;" horiz-adv-x="780" arabic-form="isolated" 
d="M665 62v92q0 53 -14 87.5t-54 60.5l-218 139v50l359 235l29 -45q-214 -142 -322 -212l190 -123q57 -37 73 -79.5t16 -104.5v-162h-390q-144 0 -206.5 65t-62.5 185v102h58v-75q0 -106 45 -160.5t159 -54.5h338zM661 803l22 -36l-361 -238l-23 35zM510 739h-49v52h49v-52z
M446 688h-49v52h49v-52z" />
    <glyph glyph-name="uni06B2.init" unicode="&#x6b2;" horiz-adv-x="467" 
d="M-34 31q0 14 9 23t25 9h350v91q0 53 -14 87.5t-54 60.5l-217 139v50l358 235l31 -45l-324 -212l190 -122q57 -37 73 -79.5t16 -104.5v-163h-409q-34 0 -34 31zM287 -151h-68v70h68v-70zM188 -151h-68v70h68v-70zM379 810l22 -36l-361 -238l-23 35z" />
    <glyph glyph-name="uni06B2.medi" unicode="&#x6b2;" horiz-adv-x="469" 
d="M0 0q-16 0 -25 8.5t-9 22.5t9 22.5t25 8.5h350v92q0 53 -14 87.5t-54 60.5q-42 27 -120 77t-97 62v50l358 235l31 -45q-216 -142 -324 -212l190 -123q57 -37 73 -79.5t16 -104.5v-100h60v-62h-469zM287 -151h-68v70h68v-70zM188 -151h-68v70h68v-70zM379 810l22 -36
l-361 -238l-23 35z" />
    <glyph glyph-name="uni06B2.fina" unicode="&#x6b2;" horiz-adv-x="786" 
d="M665 62v92q0 53 -14 87.5t-54 60.5l-218 139v50l359 235l29 -45q-214 -142 -322 -212l190 -123q57 -37 73 -79.5t16 -104.5v-100h62v-62h-452q-144 0 -206.5 65t-62.5 185v102h58v-75q0 -106 45 -160.5t159 -54.5h338zM511 -151h-68v70h68v-70zM412 -151h-68v70h68v-70z
M661 803l22 -36l-361 -238l-23 35z" />
    <glyph glyph-name="uni06B3" unicode="&#x6b3;" horiz-adv-x="780" arabic-form="isolated" 
d="M665 62v92q0 53 -14 87.5t-54 60.5l-218 139v50l359 235l29 -45q-214 -142 -322 -212l190 -123q57 -37 73 -79.5t16 -104.5v-162h-390q-144 0 -206.5 65t-62.5 185v102h58v-75q0 -106 45 -160.5t159 -54.5h338zM432 -255h-69v70h69v-70zM432 -151h-69v70h69v-70zM661 803
l22 -36l-361 -238l-23 35z" />
    <glyph glyph-name="uni06B4.init" unicode="&#x6b4;" horiz-adv-x="467" 
d="M-34 31q0 14 9 23t25 9h350v91q0 53 -14 87.5t-54 60.5l-217 139v50l358 235l31 -45l-324 -212l190 -122q57 -37 73 -79.5t16 -104.5v-163h-409q-34 0 -34 31zM379 823l22 -36l-361 -238l-23 35zM202 740h-49v52h49v-52zM132 671h-49v52h49v-52zM127 753h-49v52h49v-52z
" />
    <glyph glyph-name="uni06B4.medi" unicode="&#x6b4;" horiz-adv-x="469" 
d="M0 0q-16 0 -25 8.5t-9 22.5t9 22.5t25 8.5h350v92q0 53 -14 87.5t-54 60.5q-42 27 -120 77t-97 62v50l358 235l31 -45q-216 -142 -324 -212l190 -123q57 -37 73 -79.5t16 -104.5v-100h60v-62h-469zM379 810l22 -36l-361 -238l-23 35zM202 727h-49v52h49v-52zM132 671h-49
v52h49v-52zM127 753h-49v52h49v-52z" />
    <glyph glyph-name="uni06B4.fina" unicode="&#x6b4;" horiz-adv-x="786" 
d="M665 62v92q0 53 -14 87.5t-54 60.5l-218 139v50l359 235l29 -45q-214 -142 -322 -212l190 -123q57 -37 73 -79.5t16 -104.5v-100h62v-62h-452q-144 0 -206.5 65t-62.5 185v102h58v-75q0 -106 45 -160.5t159 -54.5h338zM661 803l22 -36l-361 -238l-23 35zM482 727h-49v52
h49v-52zM412 671h-49v52h49v-52zM407 753h-49v52h49v-52z" />
    <glyph glyph-name="uni06B5.init" unicode="&#x6b5;" horiz-adv-x="197" 
d="M-34 30q0 14 10 23.5t24 9.5q48 0 63 28t15 89v546h59v-545q0 -88 -30.5 -134.5t-106.5 -46.5q-14 0 -24 8.5t-10 21.5zM78 775l-80 151l27 14l73 -107l74 107l27 -16l-81 -149h-40z" />
    <glyph glyph-name="uni06B5.medi" unicode="&#x6b5;" horiz-adv-x="213" 
d="M111 58q-37 -58 -111 -58q-15 0 -24.5 8.5t-9.5 21.5q0 14 9.5 23.5t24.5 9.5q44 0 62 30t18 88v545h58v-555q0 -107 75 -108v-63q-32 0 -61 14t-41 44zM86 775l-80 151l27 14l73 -107l74 107l27 -16l-81 -149h-40z" />
    <glyph glyph-name="uni06B5.fina" unicode="&#x6b5;" horiz-adv-x="515" 
d="M455 726v-664h60v-62h-60v-13q0 -80 -54 -136t-142 -56q-94 0 -144 51t-50 141v295h58v-277q0 -70 34 -108t102 -38t103 41t35 109v717h58zM404 775l-80 151l27 14l73 -107l74 107l27 -16l-81 -149h-40z" />
    <glyph glyph-name="uni06B6.init" unicode="&#x6b6;" horiz-adv-x="197" 
d="M-34 30q0 14 10 23.5t24 9.5q48 0 63 28t15 89v546h59v-545q0 -88 -30.5 -134.5t-106.5 -46.5q-14 0 -24 8.5t-10 21.5zM133 775h-69v70h69v-70z" />
    <glyph glyph-name="uni06B6.medi" unicode="&#x6b6;" horiz-adv-x="213" 
d="M111 58q-37 -58 -111 -58q-15 0 -24.5 8.5t-9.5 21.5q0 14 9.5 23.5t24.5 9.5q44 0 62 30t18 88v545h58v-555q0 -107 75 -108v-63q-32 0 -61 14t-41 44zM141 775h-69v70h69v-70z" />
    <glyph glyph-name="uni06B6.fina" unicode="&#x6b6;" horiz-adv-x="515" 
d="M455 726v-664h60v-62h-60v-13q0 -80 -54 -136t-142 -56q-94 0 -144 51t-50 141v295h58v-277q0 -70 34 -108t102 -38t103 41t35 109v717h58zM459 775h-69v70h69v-70z" />
    <glyph glyph-name="uni06B7.init" unicode="&#x6b7;" horiz-adv-x="197" 
d="M-34 30q0 14 10 23.5t24 9.5q48 0 63 28t15 89v546h59v-545q0 -88 -30.5 -134.5t-106.5 -46.5q-14 0 -24 8.5t-10 21.5zM156 775h-49v52h49v-52zM90 775h-49v52h49v-52zM123 845h-49v52h49v-52z" />
    <glyph glyph-name="uni06B7.medi" unicode="&#x6b7;" horiz-adv-x="213" 
d="M111 58q-37 -58 -111 -58q-15 0 -24.5 8.5t-9.5 21.5q0 14 9.5 23.5t24.5 9.5q44 0 62 30t18 88v545h58v-555q0 -107 75 -108v-63q-32 0 -61 14t-41 44zM164 775h-49v52h49v-52zM98 775h-49v52h49v-52zM131 845h-49v52h49v-52z" />
    <glyph glyph-name="uni06B7.fina" unicode="&#x6b7;" horiz-adv-x="515" 
d="M455 726v-664h60v-62h-60v-13q0 -80 -54 -136t-142 -56q-94 0 -144 51t-50 141v295h58v-277q0 -70 34 -108t102 -38t103 41t35 109v717h58zM482 775h-49v52h49v-52zM416 775h-49v52h49v-52zM449 845h-49v52h49v-52z" />
    <glyph glyph-name="uni06B8.init" unicode="&#x6b8;" horiz-adv-x="197" 
d="M-34 30q0 14 10 23.5t24 9.5q48 0 63 28t15 89v546h59v-545q0 -88 -30.5 -134.5t-106.5 -46.5q-14 0 -24 8.5t-10 21.5zM114 -81h68v-69h-68v69zM15 -81h68v-69h-68v69zM64 -185h69v-69h-69v69z" />
    <glyph glyph-name="uni06B8.medi" unicode="&#x6b8;" horiz-adv-x="213" 
d="M111 58q-37 -58 -111 -58q-15 0 -24.5 8.5t-9.5 21.5q0 14 9.5 23.5t24.5 9.5q44 0 62 30t18 88v545h58v-555q0 -107 75 -108v-63q-32 0 -61 14t-41 44zM122 -81h68v-69h-68v69zM23 -81h68v-69h-68v69zM72 -185h69v-69h-69v69z" />
    <glyph glyph-name="uni06B8.fina" unicode="&#x6b8;" horiz-adv-x="515" 
d="M455 726v-664h60v-62h-60v-13q0 -80 -54 -136t-142 -56q-94 0 -144 51t-50 141v295h58v-277q0 -70 34 -108t102 -38t103 41t35 109v717h58zM265 -264h49v-52h-49v52zM199 -264h49v-52h-49v52zM232 -335h49v-52h-49v52z" />
    <glyph glyph-name="uni06B9.init" unicode="&#x6b9;" horiz-adv-x="197" 
d="M-34 30q0 14 10 23.5t24 9.5q48 0 63 28t15 89v272h59v-271q0 -88 -30.5 -134.5t-106.5 -46.5q-14 0 -24 8.5t-10 21.5zM133 530h-69v70h69v-70zM122 -151h-69v70h69v-70z" />
    <glyph glyph-name="uni06B9.medi" unicode="&#x6b9;" horiz-adv-x="213" 
d="M111 58q-37 -58 -111 -58q-15 0 -24.5 8.5t-9.5 21.5q0 14 9.5 23.5t24.5 9.5q44 0 62 30t18 88v206h58v-216q0 -107 75 -108v-63q-32 0 -61 14t-41 44zM141 -151h-69v70h69v-70zM141 470h-69v70h69v-70z" />
    <glyph glyph-name="uni06B9.fina" unicode="&#x6b9;" horiz-adv-x="515" 
d="M455 386v-324h60v-62h-60q0 -87 -52.5 -146t-143.5 -59q-94 0 -144 51t-50 141v295h58v-277q0 -70 34 -108t102 -38t103 41t35 109v377h58zM291 450h-69v70h69v-70zM291 -320h-69v70h69v-70z" />
    <glyph glyph-name="uni06BA" unicode="&#x6ba;" horiz-adv-x="515" arabic-form="isolated" 
d="M455 387v-394q0 -87 -53 -142.5t-143 -55.5q-94 0 -144 50.5t-50 140.5v296h59v-277q0 -70 34 -108.5t102 -38.5t102.5 41.5t34.5 110.5v377h58z" />
    <glyph glyph-name="uni06BB" unicode="&#x6bb;" horiz-adv-x="515" arabic-form="isolated" 
d="M455 387v-394q0 -87 -53 -142.5t-143 -55.5q-94 0 -144 50.5t-50 140.5v296h59v-277q0 -70 34 -108.5t102 -38.5t102.5 41.5t34.5 110.5v377h58zM303 598q29 0 47.5 -16.5t18.5 -46.5v-85h-224v40h35v145h40v-74h3q33 37 80 37zM290 558q-26 0 -47 -21t-21 -47h106v22
q0 46 -38 46z" />
    <glyph glyph-name="uni06BC.init" unicode="&#x6bc;" horiz-adv-x="197" 
d="M10 -16q0 6 2 16h-12q-14 0 -24 8.5t-10 21.5q0 14 10 23.5t24 9.5q48 0 63 28t15 89v272h59v-271q0 -85 -26 -127q21 -8 34.5 -27.5t13.5 -42.5q0 -31 -20.5 -53t-53.5 -22q-32 0 -53.5 22t-21.5 53zM45 -16q0 -17 10.5 -29t29.5 -12q18 0 28.5 12t10.5 29
q0 16 -11 27.5t-28 11.5h-2q-10 -9 -30 -16q-8 -10 -8 -23zM133 530h-69v70h69v-70z" />
    <glyph glyph-name="uni06BC.medi" unicode="&#x6bc;" horiz-adv-x="213" 
d="M32 -13q0 6 2 16q-16 -3 -34 -3q-15 0 -24.5 8.5t-9.5 21.5q0 14 9.5 23.5t24.5 9.5q44 0 62 30t18 88v206h58v-216q0 -107 75 -108v-63q-19 0 -34 4q2 -10 2 -17q0 -31 -20.5 -53t-53.5 -22q-32 0 -53.5 22t-21.5 53zM67 -13q0 -17 10.5 -29t29.5 -12q18 0 28.5 12
t10.5 29q0 16 -11 27.5t-28 11.5t-28.5 -11.5t-11.5 -27.5zM141 470h-69v70h69v-70z" />
    <glyph glyph-name="uni06BC.fina" unicode="&#x6bc;" horiz-adv-x="515" 
d="M183 -233q0 19 9 36q-62 16 -94.5 63.5t-32.5 120.5v295h58v-277q0 -70 34 -108t102 -38t103 41t35 109v377h58v-324h60v-62h-60q0 -69 -35 -123t-98 -73q10 -18 10 -37q0 -31 -20.5 -53t-53.5 -22q-32 0 -53.5 22t-21.5 53zM291 450h-69v70h69v-70zM218 -233
q0 -17 10.5 -29t29.5 -12q18 0 28.5 12t10.5 29q0 18 -13 29q-8 -1 -25 -1q-19 0 -28 1q-13 -11 -13 -29z" />
    <glyph glyph-name="uni06BD.init" unicode="&#x6bd;" horiz-adv-x="197" 
d="M-34 30q0 14 10 23.5t24 9.5q48 0 63 28t15 89v272h59v-271q0 -88 -30.5 -134.5t-106.5 -46.5q-14 0 -24 8.5t-10 21.5zM114 -81h68v-69h-68v69zM15 -81h68v-69h-68v69zM64 -185h69v-69h-69v69z" />
    <glyph glyph-name="uni06BD.medi" unicode="&#x6bd;" horiz-adv-x="213" 
d="M111 58q-37 -58 -111 -58q-15 0 -24.5 8.5t-9.5 21.5q0 14 9.5 23.5t24.5 9.5q44 0 62 30t18 88v206h58v-216q0 -107 75 -108v-63q-32 0 -61 14t-41 44zM122 -81h68v-69h-68v69zM23 -81h68v-69h-68v69zM72 -185h69v-69h-69v69z" />
    <glyph glyph-name="uni06BD.fina" unicode="&#x6bd;" horiz-adv-x="515" 
d="M455 386v-324h60v-62h-60q0 -87 -52.5 -146t-143.5 -59q-94 0 -144 51t-50 141v295h58v-277q0 -70 34 -108t102 -38t103 41t35 109v377h58zM340 450h-68v70h68v-70zM241 450h-68v70h68v-70zM291 554h-69v70h69v-70z" />
    <glyph glyph-name="uni06BE" unicode="&#x6be;" horiz-adv-x="768" arabic-form="isolated" 
d="M449 219q0 62 -28 100.5t-87 38.5q-55 0 -83.5 -38t-28.5 -90q0 -64 42 -105.5t119 -53.5q32 20 49 62.5t17 85.5zM490 501q218 0 218 -265q0 -120 -61.5 -178t-154.5 -58h-442v62h158q40 0 61 -3l2 3q-47 17 -76.5 61t-29.5 109q0 77 45.5 128.5t127.5 52.5l-18 38
q32 22 80.5 36t89.5 14zM645 240q0 113 -42.5 156.5t-113.5 43.5q-68 0 -127 -28q70 -7 108 -58t38 -133q0 -95 -53 -153v-6h35q155 0 155 178z" />
    <glyph glyph-name="uni06BF.init" unicode="&#x6bf;" horiz-adv-x="474" 
d="M0 0q-16 0 -25 9t-9 23t9 22t25 8h377l3 4q-27 28 -34 105q-13 133 -27 172q-26 67 -99 67q-65 0 -129 -36q-11 24 -26 53q76 47 154 47q61 0 100 -26t53.5 -65.5t22.5 -88.5t9 -93t12 -82t33 -53v-66h-449zM272 555h-69v70h69v-70zM247 -81h68v-69h-68v69zM148 -81h68
v-69h-68v69zM197 -185h69v-69h-69v69z" />
    <glyph glyph-name="uni06BF.medi" unicode="&#x6bf;" horiz-adv-x="482" 
d="M482 0h-482q-34 0 -34 31q0 14 9 22.5t25 8.5h377l3 4q-25 25 -34 106q-5 48 -8.5 73.5t-10 57.5t-14.5 48t-20.5 31.5t-30.5 21.5t-42 6q-65 0 -129 -36q-11 24 -26 53q76 47 154 47q56 0 93.5 -22.5t53.5 -59t24.5 -80.5t12 -88t9 -80.5t21.5 -59t45 -22.5h4v-62z
M276 555h-69v70h69v-70zM247 -81h68v-69h-68v69zM148 -81h68v-69h-68v69zM197 -185h69v-69h-69v69z" />
    <glyph glyph-name="uni06BF.fina" unicode="&#x6bf;" horiz-adv-x="524" 
d="M419 62l3 4q-25 25 -34 106q-5 48 -8.5 73.5t-10 57.5t-14.5 48t-20.5 31.5t-30.5 21.5t-42 6q-64 0 -129 -36q-11 24 -26 53q76 47 154 47q77 0 118 -42.5t51 -103t14 -121t20 -103t56 -42.5h4v-62h-274q-57 0 -90 -30.5t-33 -81.5q0 -53 41 -77t103 -24q41 0 86 9
q5 -20 13 -60q-41 -12 -107 -12q-97 0 -147.5 43t-50.5 122q0 85 56.5 129t138.5 44h159zM292 555h-69v70h69v-70zM330 -36h49v-52h-49v52zM264 -36h49v-52h-49v52zM297 -107h49v-52h-49v52z" />
    <glyph glyph-name="uni06C0" unicode="&#x6c0;" horiz-adv-x="533" arabic-form="isolated" 
d="M274 474q75 0 137 -73.5t62 -194.5q0 -100 -54 -156.5t-150 -56.5q-104 0 -154 52t-50 162q0 116 62 191.5t147 75.5zM272 413q-60 0 -102 -59.5t-42 -145.5q0 -81 34.5 -116.5t108.5 -35.5t107.5 42.5t33.5 111.5q0 86 -44.5 144.5t-95.5 58.5zM294 726q42 0 71 -20
l-17 -34q-24 14 -56 14q-56 0 -56 -47q0 -44 57 -44h72v-40h-199v40h42l1 3q-17 14 -17 44q0 33 25 58.5t77 25.5z" />
    <glyph glyph-name="uni06C1" unicode="&#x6c1;" horiz-adv-x="533" arabic-form="isolated" 
d="M274 474q75 0 137 -73.5t62 -194.5q0 -100 -54 -156.5t-150 -56.5q-104 0 -154 52t-50 162q0 116 62 191.5t147 75.5zM272 413q-60 0 -102 -59.5t-42 -145.5q0 -81 34.5 -116.5t108.5 -35.5t107.5 42.5t33.5 111.5q0 86 -44.5 144.5t-95.5 58.5z" />
    <glyph glyph-name="uni06C2.fina" unicode="&#x6c2;" horiz-adv-x="493" 
d="M415 242v-55q0 -64 16.5 -94t61.5 -30v-63q-137 0 -137 162v75q0 58 -28.5 91t-85.5 33q-51 0 -83 -37t-32 -103q0 -84 29 -121t96 -37h36v-63h-48q-83 0 -129 51t-46 156q0 98 46.5 158t131.5 60q82 0 127 -45.5t45 -137.5zM270 674q42 0 71 -20l-17 -34q-24 14 -56 14
q-56 0 -56 -47q0 -44 57 -44h72v-40h-199v40h42l1 3q-17 14 -17 44q0 33 25 58.5t77 25.5z" />
    <glyph glyph-name="uni06C3.fina" unicode="&#x6c3;" horiz-adv-x="493" 
d="M415 242v-55q0 -64 16.5 -94t61.5 -30v-63q-137 0 -137 162v75q0 58 -28.5 91t-85.5 33q-51 0 -83 -37t-32 -103q0 -84 29 -121t96 -37h36v-63h-48q-83 0 -129 51t-46 156q0 98 46.5 158t131.5 60q82 0 127 -45.5t45 -137.5zM322 503h-68v70h68v-70zM223 503h-68v70h68
v-70z" />
    <glyph glyph-name="uni06C4.fina" unicode="&#x6c4;" horiz-adv-x="520" 
d="M171 -123q0 30 22 52.5t53 22.5t52.5 -22.5t21.5 -52.5v-3q77 34 77 126h-108q-110 0 -167 53.5t-57 177.5q0 113 51.5 178.5t152.5 65.5q93 0 142 -56.5t49 -160.5v-196h60v-62h-60q-3 -102 -61.5 -153.5t-152.5 -51.5h-132v63h59q-2 12 -2 19zM279 62h119v175
q0 86 -31 130t-102 44q-69 0 -103.5 -47t-34.5 -134q0 -94 40.5 -131t111.5 -37zM206 -123q0 -11 4 -19h30q16 0 42 4q3 8 3 15q0 16 -11 27.5t-28 11.5t-28.5 -11.5t-11.5 -27.5z" />
    <glyph glyph-name="uni06C5" unicode="&#x6c5;" horiz-adv-x="522" arabic-form="isolated" 
d="M400 52q-1 1 -4 1q-21 -30 -58 -44.5t-76 -14.5q-197 0 -197 236q0 120 54 182.5t150 62.5q95 0 144 -61t49 -173v-234q0 -106 -57.5 -159t-155.5 -53h-134v63h137q82 0 121 53h-162v36h181q8 26 8 52v53zM266 411q-139 0 -139 -177q0 -178 136 -178q65 0 101 41t36 145
q0 79 -33 124t-101 45z" />
    <glyph glyph-name="uni06C6" unicode="&#x6c6;" horiz-adv-x="522" arabic-form="isolated" 
d="M400 52q-1 1 -4 1q-21 -30 -58 -44.5t-76 -14.5q-197 0 -197 236q0 120 54 182.5t150 62.5q95 0 144 -61t49 -173v-234q0 -106 -57.5 -159t-155.5 -53h-134v63h137q66 0 107 37t41 104v53zM266 411q-139 0 -139 -177q0 -178 136 -178q65 0 101 41t36 145q0 79 -33 124
t-101 45zM239 555l-80 151l27 14l73 -107l74 107l27 -16l-81 -149h-40z" />
    <glyph glyph-name="uni06C7" unicode="&#x6c7;" horiz-adv-x="522" arabic-form="isolated" 
d="M400 52q-1 1 -4 1q-21 -30 -58 -44.5t-76 -14.5q-197 0 -197 236q0 120 54 182.5t150 62.5q95 0 144 -61t49 -173v-234q0 -106 -57.5 -159t-155.5 -53h-134v63h137q66 0 107 37t41 104v53zM266 411q-139 0 -139 -177q0 -178 136 -178q65 0 101 41t36 145q0 79 -33 124
t-101 45zM291 728q32 0 49.5 -20.5t17.5 -50.5q0 -56 -70 -79l-25 -8q-20 -5 -57.5 -15t-43.5 -12v40l99 29q-31 19 -31 54q0 25 17 43.5t44 18.5z" />
    <glyph glyph-name="uni06C8" unicode="&#x6c8;" horiz-adv-x="522" arabic-form="isolated" 
d="M400 52q-1 1 -4 1q-21 -30 -58 -44.5t-76 -14.5q-197 0 -197 236q0 120 54 182.5t150 62.5q95 0 144 -61t49 -173v-234q0 -106 -57.5 -159t-155.5 -53h-134v63h137q66 0 107 37t41 104v53zM266 411q-139 0 -139 -177q0 -178 136 -178q65 0 101 41t36 145q0 79 -33 124
t-101 45zM281 727v-172h-43v172h43z" />
    <glyph glyph-name="uni06C9" unicode="&#x6c9;" horiz-adv-x="522" arabic-form="isolated" 
d="M400 52q-1 1 -4 1q-21 -30 -58 -44.5t-76 -14.5q-197 0 -197 236q0 120 54 182.5t150 62.5q95 0 144 -61t49 -173v-234q0 -106 -57.5 -159t-155.5 -53h-134v63h137q66 0 107 37t41 104v53zM266 411q-139 0 -139 -177q0 -178 136 -178q65 0 101 41t36 145q0 79 -33 124
t-101 45zM159 569l80 151h40l81 -149l-27 -16l-74 107l-73 -107z" />
    <glyph glyph-name="uni06CA.fina" unicode="&#x6ca;" horiz-adv-x="520" 
d="M520 62v-62h-60q-3 -102 -61.5 -153.5t-152.5 -51.5h-132v63h126q68 0 112.5 36t44.5 106h-108q-110 0 -167 53.5t-57 177.5q0 113 51.5 178.5t152.5 65.5q93 0 142 -56.5t49 -160.5v-196h60zM279 62h119v175q0 86 -31 130t-102 44q-69 0 -103.5 -47t-34.5 -134
q0 -94 40.5 -131t111.5 -37zM343 555h-68v70h68v-70zM244 555h-68v70h68v-70z" />
    <glyph glyph-name="uni06CB" unicode="&#x6cb;" horiz-adv-x="522" arabic-form="isolated" 
d="M400 52q-1 1 -4 1q-21 -30 -58 -44.5t-76 -14.5q-197 0 -197 236q0 120 54 182.5t150 62.5q95 0 144 -61t49 -173v-234q0 -106 -57.5 -159t-155.5 -53h-134v63h137q66 0 107 37t41 104v53zM266 411q-139 0 -139 -177q0 -178 136 -178q65 0 101 41t36 145q0 79 -33 124
t-101 45zM343 555h-68v70h68v-70zM244 555h-68v70h68v-70zM294 659h-69v70h69v-70z" />
    <glyph glyph-name="uni06CC" unicode="&#x6cc;" horiz-adv-x="836" arabic-form="isolated" 
d="M479 62v243q0 83 45 126.5t123 43.5h129v-393h-59v329h-74q-57 0 -81 -31.5t-24 -94.5v-285h-204q-144 0 -206.5 65t-62.5 185v102h58v-75q0 -114 51 -164.5t187 -50.5h118z" />
    <glyph glyph-name="uni06CD.fina" unicode="&#x6cd;" horiz-adv-x="933" 
d="M813 0v411h-74q-57 0 -81 -31.5t-24 -94.5v-285h-204q-144 0 -206.5 65.5t-62.5 184.5v34l-79 -63l-32 41l111 90h59v-75q0 -106 44.5 -160t158.5 -54h152v242q0 83 45.5 126.5t122.5 43.5h130v-412h60v-63h-120z" />
    <glyph glyph-name="uni06CE.init" unicode="&#x6ce;" horiz-adv-x="197" 
d="M-34 30q0 14 10 23.5t24 9.5q48 0 63 28t15 89v272h59v-271q0 -88 -30.5 -134.5t-106.5 -46.5q-14 0 -24 8.5t-10 21.5zM182 -151h-68v70h68v-70zM83 -151h-68v70h68v-70zM78 530l-80 151l27 14l73 -107l74 107l27 -16l-81 -149h-40z" />
    <glyph glyph-name="uni06CE.fina" unicode="&#x6ce;" horiz-adv-x="836" 
d="M479 62v243q0 83 45 126.5t123 43.5h129v-413h60v-62h-119v411h-74q-57 0 -81 -31.5t-24 -94.5v-285h-204q-144 0 -206.5 65t-62.5 185v102h58v-75q0 -106 45 -160.5t159 -54.5h152zM125 425l-80 151l27 14l73 -107l74 107l27 -16l-81 -149h-40z" />
    <glyph glyph-name="uni06CF.fina" unicode="&#x6cf;" horiz-adv-x="520" 
d="M520 62v-62h-60q-3 -102 -61.5 -153.5t-152.5 -51.5h-132v63h126q68 0 112.5 36t44.5 106h-108q-110 0 -167 53.5t-57 177.5q0 113 51.5 178.5t152.5 65.5q93 0 142 -56.5t49 -160.5v-196h60zM279 62h119v175q0 86 -31 130t-102 44q-69 0 -103.5 -47t-34.5 -134
q0 -94 40.5 -131t111.5 -37zM294 555h-69v70h69v-70z" />
    <glyph glyph-name="uni06D0" unicode="&#x6d0;" horiz-adv-x="836" arabic-form="isolated" 
d="M479 62v243q0 83 45 126.5t123 43.5h129v-393h-59v329h-74q-57 0 -81 -31.5t-24 -94.5v-285h-204q-144 0 -206.5 65t-62.5 185v102h58v-75q0 -114 51 -164.5t187 -50.5h118zM404 -255h-69v70h69v-70zM404 -151h-69v70h69v-70z" />
    <glyph glyph-name="uni06D1.init" unicode="&#x6d1;" horiz-adv-x="197" 
d="M-34 30q0 14 10 23.5t24 9.5q48 0 63 28t15 89v272h59v-271q0 -88 -30.5 -134.5t-106.5 -46.5q-14 0 -24 8.5t-10 21.5zM114 -81h68v-69h-68v69zM15 -81h68v-69h-68v69zM64 -185h69v-69h-69v69z" />
    <glyph glyph-name="uni06D1.medi" unicode="&#x6d1;" horiz-adv-x="213" 
d="M111 58q-37 -58 -111 -58q-15 0 -24.5 8.5t-9.5 21.5q0 14 9.5 23.5t24.5 9.5q44 0 62 30t18 88v206h58v-216q0 -107 75 -108v-63q-32 0 -61 14t-41 44zM122 -81h68v-69h-68v69zM23 -81h68v-69h-68v69zM72 -185h69v-69h-69v69z" />
    <glyph glyph-name="uni06D1.fina" unicode="&#x6d1;" horiz-adv-x="836" 
d="M479 62v243q0 83 45 126.5t123 43.5h129v-413h60v-62h-119v411h-74q-57 0 -81 -31.5t-24 -94.5v-285h-204q-144 0 -206.5 65t-62.5 185v102h58v-75q0 -106 45 -160.5t159 -54.5h152zM385 -81h68v-69h-68v69zM286 -81h68v-69h-68v69zM335 -185h69v-69h-69v69z" />
    <glyph glyph-name="uni06D2" unicode="&#x6d2;" horiz-adv-x="784" arabic-form="isolated" 
d="M724 -205h-659v108q0 82 43.5 121t120.5 39h57q59 0 78.5 32t19.5 93v75h60v-107q0 -77 -44 -116.5t-116 -39.5h-54q-55 0 -79 -24t-24 -80v-38h597v-63z" />
    <glyph glyph-name="uni06D3" unicode="&#x6d3;" horiz-adv-x="844" arabic-form="isolated" 
d="M754 -205h-659v108q0 82 43.5 121t120.5 39h57q59 0 78.5 32t19.5 93v75h60v-107q0 -77 -44 -116.5t-116 -39.5h-54q-55 0 -79 -24t-24 -80v-38h597v-63zM377 517q42 0 71 -20l-17 -34q-24 14 -56 14q-56 0 -56 -47q0 -44 57 -44h72v-40h-199v40h42l1 3q-17 14 -17 44
q0 33 25 58.5t77 25.5z" />
    <glyph glyph-name="uni06D5.fina" unicode="&#x6d5;" horiz-adv-x="530" 
d="M397 475h58v-276q0 -70 15.5 -102.5t59.5 -33.5v-63q-54 0 -85.5 28t-39.5 77q-60 -71 -164 -71q-84 0 -130 41.5t-46 112.5q0 37 13.5 72t47 72t103 63.5t168.5 34.5v45zM127 194q0 -44 31 -72.5t90 -28.5q36 0 67.5 11t56.5 42t25 78v147q-77 -6 -133 -24.5t-84 -45.5
t-40.5 -53t-12.5 -54z" />
    <glyph glyph-name="uni06EE.fina" unicode="&#x6ee;" horiz-adv-x="486" 
d="M245 410q-77 0 -134 -41l-33 50q71 55 166 55q182 0 182 -184v-228h60v-62h-421v62h302v208q0 73 -28.5 106.5t-93.5 33.5zM141 568l80 151h40l81 -149l-27 -16l-74 107l-73 -107z" />
    <glyph glyph-name="uni06EF.fina" unicode="&#x6ef;" horiz-adv-x="192" 
d="M132 387v-325h60v-62h-60v-33q0 -75 -48 -121t-134 -51v62q69 4 95.5 39t26.5 111v380h60zM-4 484l80 151h40l81 -149l-27 -16l-74 107l-73 -107z" />
    <glyph glyph-name="uni06FA.init" unicode="&#x6fa;" horiz-adv-x="792" 
d="M0 0q-15 0 -24.5 9t-9.5 23q0 12 9.5 21t24.5 9h185v325h58v-325h37q66 0 98.5 40.5t32.5 110.5v174h58v-203q0 -132 100 -132q51 0 76.5 41.5t25.5 104.5q0 68 -25.5 138.5t-70.5 118.5l47 39q110 -123 110 -294q0 -89 -39.5 -148t-123.5 -59q-48 0 -84.5 22.5
t-51.5 62.5h-4q-24 -47 -68 -62.5t-116 -15.5h-245zM475 -152h-69v70h69v-70zM524 555h-68v70h68v-70zM425 555h-68v70h68v-70zM475 659h-69v70h69v-70z" />
    <glyph glyph-name="uni06FA.medi" unicode="&#x6fa;" horiz-adv-x="804" 
d="M569 -8q-47 0 -83 22.5t-52 62.5h-4q-44 -77 -150 -77h-280q-16 0 -25.5 8.5t-9.5 22.5t9.5 23t25.5 9h185v324h59v-324h36q131 0 131 150v174h58v-203q0 -132 100 -132q51 0 76.5 41.5t25.5 104.5q0 68 -25.5 138.5t-70.5 118.5l47 39q109 -122 110 -293q0 -19 -2 -33
q-7 -102 74 -105v-63q-81 1 -103 61h-3q-42 -69 -129 -69zM475 -152h-69v70h69v-70zM524 555h-68v70h68v-70zM425 555h-68v70h68v-70zM475 659h-69v70h69v-70z" />
    <glyph glyph-name="uni06FA.fina" unicode="&#x6fa;" horiz-adv-x="1011" 
d="M776 -7q-47 0 -82.5 22.5t-52.5 61.5h-4q-44 -77 -150 -77h-37v-11q0 -86 -53 -140t-141 -54q-94 0 -142.5 50.5t-48.5 141.5v295h58v-277q0 -146 133 -146q68 0 102 40t34 106v382h58v-325h37q131 0 131 151v174h58v-203q0 -132 100 -132q51 0 76.5 41.5t25.5 104.5
q0 68 -25.5 138t-70.5 118l47 40q45 -51 77 -126.5t33 -166.5q0 -10 -1 -25t-1 -19q0 -44 16.5 -68.5t57.5 -25.5v-63q-81 1 -103 61h-3q-41 -68 -129 -68zM675 -152h-69v70h69v-70zM724 555h-68v70h68v-70zM625 555h-68v70h68v-70zM675 659h-69v70h69v-70z" />
    <glyph glyph-name="uni06FB.init" unicode="&#x6fb;" horiz-adv-x="636" 
d="M123 313h5q46 74 115 117t148 43q185 0 185 -185v-288h-576q-14 0 -24 8.5t-10 21.5t10 22.5t24 9.5h65v380h58v-129zM123 113v-51h394v206q0 71 -31.5 106t-101.5 35q-79 0 -140.5 -47.5t-91 -114t-29.5 -134.5zM353 -151h-69v70h69v-70zM353 555h-69v70h69v-70z" />
    <glyph glyph-name="uni06FB.medi" unicode="&#x6fb;" horiz-adv-x="636" 
d="M123 315h5q47 74 115 116t148 42q185 0 185 -185v-226h60v-62h-636q-14 0 -24 8.5t-10 21.5t10 22.5t24 9.5h65v380h58v-127zM123 113v-51h394v206q0 71 -31.5 106t-101.5 35q-79 0 -140.5 -47.5t-91 -114t-29.5 -134.5zM353 -151h-69v70h69v-70zM353 555h-69v70h69v-70z
" />
    <glyph glyph-name="uni06FB.fina" unicode="&#x6fb;" horiz-adv-x="970" 
d="M398 5v437h59v-126h4q45 73 114.5 115t149.5 42q185 0 185 -185v-226h60v-62h-513v-11q0 -85 -55 -139.5t-143 -54.5q-94 0 -144 51t-50 141v295h58v-277q0 -70 34 -108t102 -38q69 0 104 40.5t35 105.5zM457 113v-51h393v206q0 71 -31.5 106t-101.5 35
q-79 0 -140.5 -47.5t-90.5 -114t-29 -134.5zM710 -151h-69v70h69v-70zM710 555h-69v70h69v-70z" />
    <glyph glyph-name="uni06FC.init" unicode="&#x6fc;" horiz-adv-x="505" 
d="M-34 31q0 14 9.5 23t24.5 9h123l3 4q-61 44 -61 170q0 104 56.5 170.5t156.5 66.5q95 0 167 -67l-42 -49q-52 51 -127 51q-66 0 -106 -45t-40 -132q0 -169 161 -169h140v-63h-431q-15 0 -24.5 8.5t-9.5 22.5zM287 -151h-69v70h69v-70zM287 555h-69v70h69v-70z" />
    <glyph glyph-name="uni06FC.medi" unicode="&#x6fc;" horiz-adv-x="557" 
d="M-34 30q0 14 10 23.5t24 9.5h53q100 0 167 29q-77 51 -116 109.5t-39 107.5q0 79 62 122t162 43q53 0 98 -14.5t77.5 -52t32.5 -93.5t-41 -116.5t-107 -102.5q78 -32 181 -32h27v-63h-30q-132 0 -244 55q-102 -55 -249 -55h-34q-14 0 -24 8.5t-10 21.5zM289 122
q78 49 111.5 98.5t33.5 88.5q0 43 -36.5 72t-111.5 29q-76 0 -115 -29t-39 -77q0 -37 41.5 -88.5t115.5 -93.5zM313 -151h-69v70h69v-70zM313 555h-69v70h69v-70z" />
    <glyph glyph-name="uni06FC.fina" unicode="&#x6fc;" horiz-adv-x="591" 
d="M104 317q0 75 55.5 116t149.5 41q41 0 78.5 -8.5t70.5 -26t52.5 -49.5t19.5 -75q0 -103 -184 -204q40 -21 104 -34.5t128 -13.5h13v-63h-12q-80 0 -162 21.5t-129 50.5q-72 -48 -115.5 -93t-43.5 -95q0 -44 45 -71t118 -27q51 0 89 8l12 -58q-43 -13 -110 -13
q-105 0 -161.5 44t-56.5 114q0 114 171 227q-65 50 -98.5 105.5t-33.5 103.5zM302 411q-63 0 -98.5 -27t-35.5 -71q0 -38 32 -83t94 -88q95 57 134 93.5t39 75.5q0 44 -40.5 72t-124.5 28zM349 -131h-69v70h69v-70zM340 555h-69v70h69v-70z" />
    <glyph glyph-name="uni06FF.init" unicode="&#x6ff;" horiz-adv-x="668" 
d="M389 501q219 0 219 -264q0 -120 -60.5 -178.5t-150.5 -58.5h-397q-14 0 -24 8.5t-10 21.5t10 22.5t24 9.5h108q40 0 61 -3l2 3q-47 17 -76.5 61t-29.5 109q0 77 45.5 128.5t127.5 52.5l-18 38q32 22 80 36t89 14zM349 219q0 62 -28 100.5t-87 38.5q-55 0 -83.5 -38
t-28.5 -90q0 -64 42 -105.5t119 -53.5q32 20 49 62.5t17 85.5zM545 240q0 113 -42.5 156.5t-113.5 43.5q-68 0 -127 -28q70 -7 108 -58t38 -133q0 -95 -53 -153v-6h35q155 0 155 178zM234 569l80 151h40l81 -149l-27 -16l-74 107l-73 -107z" />
    <glyph glyph-name="uni06FF.medi" unicode="&#x6ff;" horiz-adv-x="677" 
d="M546 240q0 113 -43 156.5t-114 43.5q-68 0 -127 -28q70 -7 108 -58t38 -133q0 -96 -53 -154v-5h35q156 0 156 178zM349 219q0 62 -28 100.5t-87 38.5q-55 0 -83.5 -38t-28.5 -90q0 -65 42 -106.5t119 -53.5q32 20 49 63t17 86zM399 0h-399q-16 0 -25 8.5t-9 22.5t9.5 23
t24.5 9h108q33 0 61 -4l2 3q-47 16 -76.5 61t-29.5 109q0 76 46 128t127 53l-18 38q32 22 79.5 36t88.5 14q220 0 220 -265q0 -46 -9 -92q3 -36 23 -58t55 -23v-63q-90 0 -114 73q-58 -73 -164 -73zM238 569l80 151h40l81 -149l-27 -16l-74 107l-73 -107z" />
    <glyph glyph-name="uni06FF.fina" unicode="&#x6ff;" horiz-adv-x="794" 
d="M50 0v63h175q35 0 61 -5l2 3q-47 17 -77 61.5t-30 109.5q0 77 46 128.5t128 52.5l-18 38q32 22 79.5 36t88.5 14q220 0 220 -265q0 -3 -2 -28.5t-2 -48.5q0 -95 73 -96v-63q-90 0 -114 73q-58 -73 -164 -73h-466zM466 219q0 62 -28 100.5t-87 38.5q-55 0 -83.5 -38
t-28.5 -90q0 -65 41.5 -106.5t119.5 -53.5q32 20 49 63t17 86zM663 240q0 113 -43 156.5t-115 43.5q-67 0 -126 -28q70 -7 108 -58t38 -133q0 -97 -54 -154v-5h35q157 0 157 178zM368 569l80 151h40l81 -149l-27 -16l-74 107l-73 -107z" />
    <glyph glyph-name="uni0671.fina" unicode="&#x671;" horiz-adv-x="194" arabic-form="final" 
d="M194 0h-20q-60 0 -84.5 27.5t-24.5 93.5v555h59v-542q0 -39 12.5 -55t50.5 -16h7v-63zM-6 776h-3l-31 -31h-4v46l42 43h7q19 -54 50 -54h7v104h41v-30l3 -1q29 31 73 31q26 0 43 -15t17 -45v-84h-187q-43 0 -58 36zM199 805q0 41 -36 41q-23 0 -42.5 -16.5t-19.5 -45.5
v-4h98v25z" />
    <glyph glyph-name="uni067B.fina" unicode="&#x67b;" horiz-adv-x="737" arabic-form="final" 
d="M603 386h59v-216q0 -104 75 -107v-63q-83 0 -105 62q-22 -34 -53 -48t-86 -14h-159q-144 0 -206.5 65.5t-62.5 184.5v102h59v-75q0 -106 44.5 -160t158.5 -54h166q67 0 88.5 31.5t21.5 96.5v195zM394 -255h-69v70h69v-70zM394 -151h-69v70h69v-70z" />
    <glyph glyph-name="uni067B.init" unicode="&#x67b;" horiz-adv-x="197" arabic-form="initial" 
d="M-34 30q0 14 10 23.5t24 9.5q48 0 63 28t15 89v272h59v-271q0 -88 -30.5 -134.5t-106.5 -46.5q-14 0 -24 8.5t-10 21.5zM122 -255h-69v70h69v-70zM122 -151h-69v70h69v-70z" />
    <glyph glyph-name="uni067B.medi" unicode="&#x67b;" horiz-adv-x="213" arabic-form="medial" 
d="M111 58q-37 -58 -111 -58q-15 0 -24.5 8.5t-9.5 21.5q0 14 9.5 23.5t24.5 9.5q44 0 62 30t18 88v206h58v-216q0 -107 75 -108v-63q-32 0 -61 14t-41 44zM141 -255h-69v70h69v-70zM141 -151h-69v70h69v-70z" />
    <glyph glyph-name="uni067E.fina" unicode="&#x67e;" horiz-adv-x="737" arabic-form="final" 
d="M603 386h59v-216q0 -104 75 -107v-63q-83 0 -105 62q-22 -34 -53 -48t-86 -14h-159q-144 0 -206.5 65.5t-62.5 184.5v102h59v-75q0 -106 44.5 -160t158.5 -54h166q67 0 88.5 31.5t21.5 96.5v195zM375 -81h68v-69h-68v69zM276 -81h68v-69h-68v69zM325 -185h69v-69h-69v69z
" />
    <glyph glyph-name="uni067E.init" unicode="&#x67e;" horiz-adv-x="197" arabic-form="initial" 
d="M-34 30q0 14 10 23.5t24 9.5q48 0 63 28t15 89v272h59v-271q0 -88 -30.5 -134.5t-106.5 -46.5q-14 0 -24 8.5t-10 21.5zM114 -81h68v-69h-68v69zM15 -81h68v-69h-68v69zM64 -185h69v-69h-69v69z" />
    <glyph glyph-name="uni067E.medi" unicode="&#x67e;" horiz-adv-x="213" arabic-form="medial" 
d="M111 58q-37 -58 -111 -58q-15 0 -24.5 8.5t-9.5 21.5q0 14 9.5 23.5t24.5 9.5q44 0 62 30t18 88v206h58v-216q0 -107 75 -108v-63q-32 0 -61 14t-41 44zM122 -81h68v-69h-68v69zM23 -81h68v-69h-68v69zM72 -185h69v-69h-69v69z" />
    <glyph glyph-name="uni0680.fina" unicode="&#x680;" horiz-adv-x="737" arabic-form="final" 
d="M603 386h59v-216q0 -104 75 -107v-63q-83 0 -105 62q-22 -34 -53 -48t-86 -14h-159q-144 0 -206.5 65.5t-62.5 184.5v102h59v-75q0 -106 44.5 -160t158.5 -54h166q67 0 88.5 31.5t21.5 96.5v195zM443 -255h-68v70h68v-70zM344 -255h-68v70h68v-70zM443 -151h-68v70h68
v-70zM344 -151h-68v70h68v-70z" />
    <glyph glyph-name="uni0680.init" unicode="&#x680;" horiz-adv-x="197" arabic-form="initial" 
d="M-34 30q0 14 10 23.5t24 9.5q48 0 63 28t15 89v272h59v-271q0 -88 -30.5 -134.5t-106.5 -46.5q-14 0 -24 8.5t-10 21.5zM182 -255h-68v70h68v-70zM83 -255h-68v70h68v-70zM182 -151h-68v70h68v-70zM83 -151h-68v70h68v-70z" />
    <glyph glyph-name="uni0680.medi" unicode="&#x680;" horiz-adv-x="213" arabic-form="medial" 
d="M111 58q-37 -58 -111 -58q-15 0 -24.5 8.5t-9.5 21.5q0 14 9.5 23.5t24.5 9.5q44 0 62 30t18 88v206h58v-216q0 -107 75 -108v-63q-32 0 -61 14t-41 44zM190 -255h-68v70h68v-70zM91 -255h-68v70h68v-70zM190 -151h-68v70h68v-70zM91 -151h-68v70h68v-70z" />
    <glyph glyph-name="uni067A.fina" unicode="&#x67a;" horiz-adv-x="737" arabic-form="final" 
d="M603 386h59v-216q0 -104 75 -107v-63q-83 0 -105 62q-22 -34 -53 -48t-86 -14h-159q-144 0 -206.5 65.5t-62.5 184.5v102h59v-75q0 -106 44.5 -160t158.5 -54h166q67 0 88.5 31.5t21.5 96.5v195zM394 450h-69v70h69v-70zM394 554h-69v70h69v-70z" />
    <glyph glyph-name="uni067A.init" unicode="&#x67a;" horiz-adv-x="197" arabic-form="initial" 
d="M-34 30q0 14 10 23.5t24 9.5q48 0 63 28t15 89v272h59v-271q0 -88 -30.5 -134.5t-106.5 -46.5q-14 0 -24 8.5t-10 21.5zM133 530h-69v70h69v-70zM133 634h-69v70h69v-70z" />
    <glyph glyph-name="uni067A.medi" unicode="&#x67a;" horiz-adv-x="213" arabic-form="medial" 
d="M111 58q-37 -58 -111 -58q-15 0 -24.5 8.5t-9.5 21.5q0 14 9.5 23.5t24.5 9.5q44 0 62 30t18 88v206h58v-216q0 -107 75 -108v-63q-32 0 -61 14t-41 44zM141 470h-69v70h69v-70zM141 574h-69v70h69v-70z" />
    <glyph glyph-name="uni067F.fina" unicode="&#x67f;" horiz-adv-x="737" arabic-form="final" 
d="M603 386h59v-216q0 -104 75 -107v-63q-83 0 -105 62q-22 -34 -53 -48t-86 -14h-159q-144 0 -206.5 65.5t-62.5 184.5v102h59v-75q0 -106 44.5 -160t158.5 -54h166q67 0 88.5 31.5t21.5 96.5v195zM443 450h-68v70h68v-70zM344 450h-68v70h68v-70zM443 554h-68v70h68v-70z
M344 554h-68v70h68v-70z" />
    <glyph glyph-name="uni067F.init" unicode="&#x67f;" horiz-adv-x="197" arabic-form="initial" 
d="M-34 30q0 14 10 23.5t24 9.5q48 0 63 28t15 89v272h59v-271q0 -88 -30.5 -134.5t-106.5 -46.5q-14 0 -24 8.5t-10 21.5zM182 530h-68v70h68v-70zM83 530h-68v70h68v-70zM182 634h-68v70h68v-70zM83 634h-68v70h68v-70z" />
    <glyph glyph-name="uni067F.medi" unicode="&#x67f;" horiz-adv-x="213" arabic-form="medial" 
d="M111 58q-37 -58 -111 -58q-15 0 -24.5 8.5t-9.5 21.5q0 14 9.5 23.5t24.5 9.5q44 0 62 30t18 88v206h58v-216q0 -107 75 -108v-63q-32 0 -61 14t-41 44zM190 470h-68v70h68v-70zM91 470h-68v70h68v-70zM190 574h-68v70h68v-70zM91 574h-68v70h68v-70z" />
    <glyph glyph-name="uni0679.fina" unicode="&#x679;" horiz-adv-x="737" arabic-form="final" 
d="M603 386h59v-216q0 -104 75 -107v-63q-83 0 -105 62q-22 -34 -53 -48t-86 -14h-159q-144 0 -206.5 65.5t-62.5 184.5v102h59v-75q0 -106 44.5 -160t158.5 -54h166q67 0 88.5 31.5t21.5 96.5v195zM406 598q29 0 47.5 -16.5t18.5 -46.5v-85h-224v40h35v145h40v-74h3
q33 37 80 37zM393 558q-26 0 -47 -21t-21 -47h106v22q0 46 -38 46z" />
    <glyph glyph-name="uni0679.init" unicode="&#x679;" horiz-adv-x="197" arabic-form="initial" 
d="M-34 30q0 14 10 23.5t24 9.5q48 0 63 28t15 89v272h59v-271q0 -88 -30.5 -134.5t-106.5 -46.5q-14 0 -24 8.5t-10 21.5zM144 678q29 0 47.5 -16.5t18.5 -46.5v-85h-224v40h35v145h40v-74h3q33 37 80 37zM131 638q-26 0 -47 -21t-21 -47h106v22q0 46 -38 46z" />
    <glyph glyph-name="uni0679.medi" unicode="&#x679;" horiz-adv-x="213" arabic-form="medial" 
d="M111 58q-37 -58 -111 -58q-15 0 -24.5 8.5t-9.5 21.5q0 14 9.5 23.5t24.5 9.5q44 0 62 30t18 88v206h58v-216q0 -107 75 -108v-63q-32 0 -61 14t-41 44zM152 618q29 0 47.5 -16.5t18.5 -46.5v-85h-224v40h35v145h40v-74h3q33 37 80 37zM139 578q-26 0 -47 -21t-21 -47
h106v22q0 46 -38 46z" />
    <glyph glyph-name="uni06A4.fina" unicode="&#x6a4;" horiz-adv-x="842" arabic-form="final" 
d="M842 0h-500q-140 0 -208.5 66t-68.5 226v60h62v-75q0 -214 200 -214h130q20 0 46 -2l1 4q-50 21 -86.5 73.5t-36.5 125.5q0 93 52.5 151.5t144.5 58.5q96 0 150 -61t54 -166q0 -59 -20 -107t-48 -73l2 -4h126v-63zM579 413q-64 0 -99.5 -40.5t-35.5 -100.5q0 -82 51 -134
t147 -69q78 52 78 174q0 80 -37.5 125t-103.5 45zM663 555h-68v70h68v-70zM564 555h-68v70h68v-70zM614 659h-69v70h69v-70z" />
    <glyph glyph-name="uni06A4.init" unicode="&#x6a4;" horiz-adv-x="520" arabic-form="initial" 
d="M0 0q-16 0 -25 8.5t-9 22.5t9 22.5t25 8.5h134q48 0 73 -3q0 1 1 3q-68 18 -105.5 70.5t-37.5 134.5q0 87 52.5 147t145.5 60q96 0 146.5 -62t50.5 -172q0 -115 -49 -177.5t-144 -62.5h-267zM398 243q0 169 -135 169q-67 0 -101 -43.5t-34 -104.5q0 -156 209 -181
q61 38 61 160zM344 555h-68v70h68v-70zM245 555h-68v70h68v-70zM295 659h-69v70h69v-70z" />
    <glyph glyph-name="uni06A4.medi" unicode="&#x6a4;" horiz-adv-x="526" arabic-form="medial" 
d="M-35 32q0 13 10 22t25 9h141q20 0 46 -2l1 4q-50 21 -86.5 73.5t-36.5 125.5q0 93 52.5 151.5t144.5 58.5q96 0 150 -61t54 -166q0 -59 -20 -107t-48 -73l2 -4h126v-63h-526q-15 0 -25 9t-10 23zM263 413q-64 0 -99.5 -40.5t-35.5 -100.5q0 -82 51 -134t147 -69
q78 52 78 174q0 80 -37.5 125t-103.5 45zM347 555h-68v70h68v-70zM248 555h-68v70h68v-70zM298 659h-69v70h69v-70z" />
    <glyph glyph-name="uni06A6.fina" unicode="&#x6a6;" horiz-adv-x="842" arabic-form="final" 
d="M842 0h-500q-140 0 -208.5 66t-68.5 226v60h62v-75q0 -214 200 -214h130q20 0 46 -2l1 4q-50 21 -86.5 73.5t-36.5 125.5q0 93 52.5 151.5t144.5 58.5q96 0 150 -61t54 -166q0 -59 -20 -107t-48 -73l2 -4h126v-63zM579 413q-64 0 -99.5 -40.5t-35.5 -100.5q0 -82 51 -134
t147 -69q78 52 78 174q0 80 -37.5 125t-103.5 45zM663 555h-68v70h68v-70zM564 555h-68v70h68v-70zM663 659h-68v70h68v-70zM564 659h-68v70h68v-70z" />
    <glyph glyph-name="uni06A6.init" unicode="&#x6a6;" horiz-adv-x="520" arabic-form="initial" 
d="M0 0q-16 0 -25 8.5t-9 22.5t9 22.5t25 8.5h134q48 0 73 -3q0 1 1 3q-68 18 -105.5 70.5t-37.5 134.5q0 87 52.5 147t145.5 60q96 0 146.5 -62t50.5 -172q0 -115 -49 -177.5t-144 -62.5h-267zM398 243q0 169 -135 169q-67 0 -101 -43.5t-34 -104.5q0 -156 209 -181
q61 38 61 160zM344 555h-68v70h68v-70zM245 555h-68v70h68v-70zM344 659h-68v70h68v-70zM245 659h-68v70h68v-70z" />
    <glyph glyph-name="uni06A6.medi" unicode="&#x6a6;" horiz-adv-x="526" arabic-form="medial" 
d="M-35 32q0 13 10 22t25 9h141q20 0 46 -2l1 4q-50 21 -86.5 73.5t-36.5 125.5q0 93 52.5 151.5t144.5 58.5q96 0 150 -61t54 -166q0 -59 -20 -107t-48 -73l2 -4h126v-63h-526q-15 0 -25 9t-10 23zM263 413q-64 0 -99.5 -40.5t-35.5 -100.5q0 -82 51 -134t147 -69
q78 52 78 174q0 80 -37.5 125t-103.5 45zM347 555h-68v70h68v-70zM248 555h-68v70h68v-70zM347 659h-68v70h68v-70zM248 659h-68v70h68v-70z" />
    <glyph glyph-name="uni0684.fina" unicode="&#x684;" horiz-adv-x="524" arabic-form="final" 
d="M419 62l3 4q-25 25 -34 106q-5 48 -8.5 73.5t-10 57.5t-14.5 48t-20.5 31.5t-30.5 21.5t-42 6q-64 0 -129 -36q-11 24 -26 53q76 47 154 47q77 0 118 -42.5t51 -103t14 -121t20 -103t56 -42.5h4v-62h-274q-57 0 -90 -30.5t-33 -81.5q0 -53 41 -77t103 -24q41 0 86 9
q5 -20 13 -60q-41 -12 -107 -12q-97 0 -147.5 43t-50.5 122q0 85 56.5 129t138.5 44h159zM346 -159h-49v52h49v-52zM346 -89h-49v52h49v-52z" />
    <glyph glyph-name="uni0684.init" unicode="&#x684;" horiz-adv-x="474" arabic-form="initial" 
d="M0 0q-16 0 -25 9t-9 23t9 22t25 8h377l3 4q-27 28 -34 105q-13 133 -27 172q-26 67 -99 67q-65 0 -129 -36q-11 24 -26 53q76 47 154 47q61 0 100 -26t53.5 -65.5t22.5 -88.5t9 -93t12 -82t33 -53v-66h-449zM264 -255h-69v70h69v-70zM264 -151h-69v70h69v-70z" />
    <glyph glyph-name="uni0684.medi" unicode="&#x684;" horiz-adv-x="482" arabic-form="medial" 
d="M482 0h-482q-34 0 -34 31q0 14 9 22.5t25 8.5h377l3 4q-25 25 -34 106q-5 48 -8.5 73.5t-10 57.5t-14.5 48t-20.5 31.5t-30.5 21.5t-42 6q-65 0 -129 -36q-11 24 -26 53q76 47 154 47q56 0 93.5 -22.5t53.5 -59t24.5 -80.5t12 -88t9 -80.5t21.5 -59t45 -22.5h4v-62z
M264 -255h-69v70h69v-70zM264 -151h-69v70h69v-70z" />
    <glyph glyph-name="uni0683.fina" unicode="&#x683;" horiz-adv-x="524" arabic-form="final" 
d="M419 62l3 4q-25 25 -34 106q-5 48 -8.5 73.5t-10 57.5t-14.5 48t-20.5 31.5t-30.5 21.5t-42 6q-64 0 -129 -36q-11 24 -26 53q76 47 154 47q77 0 118 -42.5t51 -103t14 -121t20 -103t56 -42.5h4v-62h-274q-57 0 -90 -30.5t-33 -81.5q0 -53 41 -77t103 -24q41 0 86 9
q5 -20 13 -60q-41 -12 -107 -12q-97 0 -147.5 43t-50.5 122q0 85 56.5 129t138.5 44h159zM405 -134h-68v70h68v-70zM306 -134h-68v70h68v-70z" />
    <glyph glyph-name="uni0683.init" unicode="&#x683;" horiz-adv-x="474" arabic-form="initial" 
d="M0 0q-16 0 -25 9t-9 23t9 22t25 8h377l3 4q-27 28 -34 105q-13 133 -27 172q-26 67 -99 67q-65 0 -129 -36q-11 24 -26 53q76 47 154 47q61 0 100 -26t53.5 -65.5t22.5 -88.5t9 -93t12 -82t33 -53v-66h-449zM315 -151h-68v70h68v-70zM216 -151h-68v70h68v-70z" />
    <glyph glyph-name="uni0683.medi" unicode="&#x683;" horiz-adv-x="482" arabic-form="medial" 
d="M482 0h-482q-34 0 -34 31q0 14 9 22.5t25 8.5h377l3 4q-25 25 -34 106q-5 48 -8.5 73.5t-10 57.5t-14.5 48t-20.5 31.5t-30.5 21.5t-42 6q-65 0 -129 -36q-11 24 -26 53q76 47 154 47q56 0 93.5 -22.5t53.5 -59t24.5 -80.5t12 -88t9 -80.5t21.5 -59t45 -22.5h4v-62z
M315 -151h-68v70h68v-70zM216 -151h-68v70h68v-70z" />
    <glyph glyph-name="uni0686.fina" unicode="&#x686;" horiz-adv-x="524" arabic-form="final" 
d="M419 62l3 4q-25 25 -34 106q-5 48 -8.5 73.5t-10 57.5t-14.5 48t-20.5 31.5t-30.5 21.5t-42 6q-64 0 -129 -36q-11 24 -26 53q76 47 154 47q77 0 118 -42.5t51 -103t14 -121t20 -103t56 -42.5h4v-62h-274q-57 0 -90 -30.5t-33 -81.5q0 -53 41 -77t103 -24q41 0 86 9
q5 -20 13 -60q-41 -12 -107 -12q-97 0 -147.5 43t-50.5 122q0 85 56.5 129t138.5 44h159zM330 -36h49v-52h-49v52zM264 -36h49v-52h-49v52zM297 -107h49v-52h-49v52z" />
    <glyph glyph-name="uni0686.init" unicode="&#x686;" horiz-adv-x="474" arabic-form="initial" 
d="M0 0q-16 0 -25 9t-9 23t9 22t25 8h377l3 4q-27 28 -34 105q-13 133 -27 172q-26 67 -99 67q-65 0 -129 -36q-11 24 -26 53q76 47 154 47q61 0 100 -26t53.5 -65.5t22.5 -88.5t9 -93t12 -82t33 -53v-66h-449zM247 -81h68v-69h-68v69zM148 -81h68v-69h-68v69zM197 -185h69
v-69h-69v69z" />
    <glyph glyph-name="uni0686.medi" unicode="&#x686;" horiz-adv-x="482" arabic-form="medial" 
d="M482 0h-482q-34 0 -34 31q0 14 9 22.5t25 8.5h377l3 4q-25 25 -34 106q-5 48 -8.5 73.5t-10 57.5t-14.5 48t-20.5 31.5t-30.5 21.5t-42 6q-65 0 -129 -36q-11 24 -26 53q76 47 154 47q56 0 93.5 -22.5t53.5 -59t24.5 -80.5t12 -88t9 -80.5t21.5 -59t45 -22.5h4v-62z
M247 -81h68v-69h-68v69zM148 -81h68v-69h-68v69zM197 -185h69v-69h-69v69z" />
    <glyph glyph-name="uni0687.fina" unicode="&#x687;" horiz-adv-x="524" arabic-form="final" 
d="M419 62l3 4q-25 25 -34 106q-5 48 -8.5 73.5t-10 57.5t-14.5 48t-20.5 31.5t-30.5 21.5t-42 6q-64 0 -129 -36q-11 24 -26 53q76 47 154 47q77 0 118 -42.5t51 -103t14 -121t20 -103t56 -42.5h4v-62h-274q-57 0 -90 -30.5t-33 -81.5q0 -53 41 -77t103 -24q41 0 86 9
q5 -20 13 -60q-41 -12 -107 -12q-97 0 -147.5 43t-50.5 122q0 85 56.5 129t138.5 44h159zM379 -158h-49v52h49v-52zM313 -158h-49v52h49v-52zM379 -88h-49v52h49v-52zM313 -88h-49v52h49v-52z" />
    <glyph glyph-name="uni0687.init" unicode="&#x687;" horiz-adv-x="474" arabic-form="initial" 
d="M0 0q-16 0 -25 9t-9 23t9 22t25 8h377l3 4q-27 28 -34 105q-13 133 -27 172q-26 67 -99 67q-65 0 -129 -36q-11 24 -26 53q76 47 154 47q61 0 100 -26t53.5 -65.5t22.5 -88.5t9 -93t12 -82t33 -53v-66h-449zM315 -255h-68v70h68v-70zM216 -255h-68v70h68v-70zM315 -151
h-68v70h68v-70zM216 -151h-68v70h68v-70z" />
    <glyph glyph-name="uni0687.medi" unicode="&#x687;" horiz-adv-x="482" arabic-form="medial" 
d="M482 0h-482q-34 0 -34 31q0 14 9 22.5t25 8.5h377l3 4q-25 25 -34 106q-5 48 -8.5 73.5t-10 57.5t-14.5 48t-20.5 31.5t-30.5 21.5t-42 6q-65 0 -129 -36q-11 24 -26 53q76 47 154 47q56 0 93.5 -22.5t53.5 -59t24.5 -80.5t12 -88t9 -80.5t21.5 -59t45 -22.5h4v-62z
M315 -255h-68v70h68v-70zM216 -255h-68v70h68v-70zM315 -151h-68v70h68v-70zM216 -151h-68v70h68v-70z" />
    <glyph glyph-name="uni068D.fina" unicode="&#x68d;" horiz-adv-x="486" arabic-form="final" 
d="M245 410q-77 0 -134 -41l-33 50q71 55 166 55q182 0 182 -184v-228h60v-62h-421v62h302v208q0 73 -28.5 106.5t-93.5 33.5zM321 -151h-68v70h68v-70zM222 -151h-68v70h68v-70z" />
    <glyph glyph-name="uni068C.fina" unicode="&#x68c;" horiz-adv-x="486" arabic-form="final" 
d="M245 410q-77 0 -134 -41l-33 50q71 55 166 55q182 0 182 -184v-228h60v-62h-421v62h302v208q0 73 -28.5 106.5t-93.5 33.5zM321 555h-68v70h68v-70zM222 555h-68v70h68v-70z" />
    <glyph glyph-name="uni068E.fina" unicode="&#x68e;" horiz-adv-x="486" arabic-form="final" 
d="M245 410q-77 0 -134 -41l-33 50q71 55 166 55q182 0 182 -184v-228h60v-62h-421v62h302v208q0 73 -28.5 106.5t-93.5 33.5zM321 555h-68v70h68v-70zM222 555h-68v70h68v-70zM272 659h-69v70h69v-70z" />
    <glyph glyph-name="uni0688.fina" unicode="&#x688;" horiz-adv-x="486" arabic-form="final" 
d="M245 410q-77 0 -134 -41l-33 50q71 55 166 55q182 0 182 -184v-228h60v-62h-421v62h302v208q0 73 -28.5 106.5t-93.5 33.5zM288 703q29 0 47.5 -16.5t18.5 -46.5v-85h-224v40h35v145h40v-74h3q33 37 80 37zM275 663q-26 0 -47 -21t-21 -47h106v22q0 46 -38 46z" />
    <glyph glyph-name="uni0698.fina" unicode="&#x698;" horiz-adv-x="192" arabic-form="final" 
d="M132 387v-325h60v-62h-60v-33q0 -75 -48 -121t-134 -51v62q69 4 95.5 39t26.5 111v380h60zM180 470h-68v70h68v-70zM81 470h-68v70h68v-70zM131 574h-69v70h69v-70z" />
    <glyph glyph-name="uni06A9.fina" unicode="&#x6a9;" horiz-adv-x="786" arabic-form="final" 
d="M665 62v92q0 53 -14 87.5t-54 60.5l-218 139v50l359 235l29 -45q-214 -142 -322 -212l190 -123q57 -37 73 -79.5t16 -104.5v-100h62v-62h-452q-144 0 -206.5 65t-62.5 185v102h58v-75q0 -106 45 -160.5t159 -54.5h338z" />
    <glyph glyph-name="uni06A9.init" unicode="&#x6a9;" horiz-adv-x="467" arabic-form="initial" 
d="M-34 31q0 14 9 23t25 9h350v91q0 53 -14 87.5t-54 60.5l-217 139v50l358 235l31 -45l-324 -212l190 -122q57 -37 73 -79.5t16 -104.5v-163h-409q-34 0 -34 31z" />
    <glyph glyph-name="uni06A9.medi" unicode="&#x6a9;" horiz-adv-x="469" arabic-form="medial" 
d="M0 0q-16 0 -25 8.5t-9 22.5t9 22.5t25 8.5h350v92q0 53 -14 87.5t-54 60.5q-42 27 -120 77t-97 62v50l358 235l31 -45q-216 -142 -324 -212l190 -123q57 -37 73 -79.5t16 -104.5v-100h60v-62h-469z" />
    <glyph glyph-name="uni06AF.fina" unicode="&#x6af;" horiz-adv-x="786" arabic-form="final" 
d="M665 62v92q0 53 -14 87.5t-54 60.5l-218 139v50l359 235l29 -45q-214 -142 -322 -212l190 -123q57 -37 73 -79.5t16 -104.5v-100h62v-62h-452q-144 0 -206.5 65t-62.5 185v102h58v-75q0 -106 45 -160.5t159 -54.5h338zM661 803l22 -36l-361 -238l-23 35z" />
    <glyph glyph-name="uni06AF.init" unicode="&#x6af;" horiz-adv-x="467" arabic-form="initial" 
d="M-34 31q0 14 9 23t25 9h350v91q0 53 -14 87.5t-54 60.5l-217 139v50l358 235l31 -45l-324 -212l190 -122q57 -37 73 -79.5t16 -104.5v-163h-409q-34 0 -34 31zM379 810l22 -36l-361 -238l-23 35z" />
    <glyph glyph-name="uni06AF.medi" unicode="&#x6af;" horiz-adv-x="469" arabic-form="medial" 
d="M0 0q-16 0 -25 8.5t-9 22.5t9 22.5t25 8.5h350v92q0 53 -14 87.5t-54 60.5q-42 27 -120 77t-97 62v50l358 235l31 -45q-216 -142 -324 -212l190 -123q57 -37 73 -79.5t16 -104.5v-100h60v-62h-469zM379 810l22 -36l-361 -238l-23 35z" />
    <glyph glyph-name="uni06B3.fina" unicode="&#x6b3;" horiz-adv-x="786" arabic-form="final" 
d="M665 62v92q0 53 -14 87.5t-54 60.5l-218 139v50l359 235l29 -45q-214 -142 -322 -212l190 -123q57 -37 73 -79.5t16 -104.5v-100h62v-62h-452q-144 0 -206.5 65t-62.5 185v102h58v-75q0 -106 45 -160.5t159 -54.5h338zM432 -255h-69v70h69v-70zM432 -151h-69v70h69v-70z
M661 803l22 -36l-361 -238l-23 35z" />
    <glyph glyph-name="uni06B3.init" unicode="&#x6b3;" horiz-adv-x="467" arabic-form="initial" 
d="M-34 31q0 14 9 23t25 9h350v91q0 53 -14 87.5t-54 60.5l-217 139v50l358 235l31 -45l-324 -212l190 -122q57 -37 73 -79.5t16 -104.5v-163h-409q-34 0 -34 31zM238 -255h-69v70h69v-70zM238 -151h-69v70h69v-70zM379 810l22 -36l-361 -238l-23 35z" />
    <glyph glyph-name="uni06B3.medi" unicode="&#x6b3;" horiz-adv-x="469" arabic-form="medial" 
d="M0 0q-16 0 -25 8.5t-9 22.5t9 22.5t25 8.5h350v92q0 53 -14 87.5t-54 60.5q-42 27 -120 77t-97 62v50l358 235l31 -45q-216 -142 -324 -212l190 -123q57 -37 73 -79.5t16 -104.5v-100h60v-62h-469zM238 -255h-69v70h69v-70zM238 -151h-69v70h69v-70zM379 810l22 -36
l-361 -238l-23 35z" />
    <glyph glyph-name="uni06B1.fina" unicode="&#x6b1;" horiz-adv-x="786" arabic-form="final" 
d="M665 62v92q0 53 -14 87.5t-54 60.5l-218 139v50l359 235l29 -45q-214 -142 -322 -212l190 -123q57 -37 73 -79.5t16 -104.5v-100h62v-62h-452q-144 0 -206.5 65t-62.5 185v102h58v-75q0 -106 45 -160.5t159 -54.5h338zM661 803l22 -36l-361 -238l-23 35zM510 739h-49v52
h49v-52zM446 688h-49v52h49v-52z" />
    <glyph glyph-name="uni06B1.init" unicode="&#x6b1;" horiz-adv-x="467" arabic-form="initial" 
d="M-34 31q0 14 9 23t25 9h350v91q0 53 -14 87.5t-54 60.5l-217 139v50l358 235l31 -45l-324 -212l190 -122q57 -37 73 -79.5t16 -104.5v-163h-409q-34 0 -34 31zM136 688h-49v52h49v-52zM200 739h-49v52h49v-52zM379 810l22 -36l-361 -238l-23 35z" />
    <glyph glyph-name="uni06B1.medi" unicode="&#x6b1;" horiz-adv-x="469" arabic-form="medial" 
d="M0 0q-16 0 -25 8.5t-9 22.5t9 22.5t25 8.5h350v92q0 53 -14 87.5t-54 60.5q-42 27 -120 77t-97 62v50l358 235l31 -45q-216 -142 -324 -212l190 -123q57 -37 73 -79.5t16 -104.5v-100h60v-62h-469zM136 688h-49v52h49v-52zM200 739h-49v52h49v-52zM379 810l22 -36
l-361 -238l-23 35z" />
    <glyph glyph-name="uni06C0.fina" unicode="&#x6c0;" horiz-adv-x="530" arabic-form="final" 
d="M397 475h58v-276q0 -70 15.5 -102.5t59.5 -33.5v-63q-54 0 -85.5 28t-39.5 77q-60 -71 -164 -71q-84 0 -130 41.5t-46 112.5q0 37 13.5 72t47 72t103 63.5t168.5 34.5v45zM127 194q0 -44 31 -72.5t90 -28.5q36 0 67.5 11t56.5 42t25 78v147q-77 -6 -133 -24.5t-84 -45.5
t-40.5 -53t-12.5 -54zM255 701q42 0 71 -20l-17 -34q-24 14 -56 14q-56 0 -56 -47q0 -44 57 -44h72v-40h-199v40h42l1 3q-17 14 -17 44q0 33 25 58.5t77 25.5z" />
    <glyph glyph-name="uni06C1.fina" unicode="&#x6c1;" horiz-adv-x="493" arabic-form="final" 
d="M415 242v-55q0 -64 16.5 -94t61.5 -30v-63q-137 0 -137 162v75q0 58 -28.5 91t-85.5 33q-51 0 -83 -37t-32 -103q0 -84 29 -121t96 -37h36v-63h-48q-83 0 -129 51t-46 156q0 98 46.5 158t131.5 60q82 0 127 -45.5t45 -137.5z" />
    <glyph glyph-name="uni06C1.init" unicode="&#x6c1;" horiz-adv-x="197" arabic-form="initial" 
d="M-34 30q0 14 10 23.5t24 9.5q48 0 63 28t15 89v272h59v-271q0 -88 -30.5 -134.5t-106.5 -46.5q-14 0 -24 8.5t-10 21.5zM119 -126l37 -18q-35 -72 -93 -72q-24 0 -39 13t-15 37q0 13 5 30l37 122h47l-41 -132q-2 -10 -2 -12q0 -15 16 -15q21 0 48 47z" />
    <glyph glyph-name="uni06C1.medi" unicode="&#x6c1;" horiz-adv-x="388" arabic-form="medial" 
d="M-35 30q0 14 10 23.5t25 9.5q47 0 63.5 31t16.5 98v82h59v-225q0 -59 15.5 -99t61.5 -68l3 1q3 95 35 137.5t108 42.5h26v-63h-29q-49 0 -66.5 -34.5t-17.5 -112.5q2 -1 35 -9l-16 -54q-111 26 -161.5 82t-51.5 157l-2 2q-28 -31 -79 -31q-15 0 -25 8.5t-10 21.5z
M122 -252l37 -18q-35 -72 -93 -72q-24 0 -39 13t-15 37q0 13 5 30l37 122h47l-41 -132q-2 -10 -2 -12q0 -15 16 -15q21 0 48 47z" />
    <glyph glyph-name="uni06BE.fina" unicode="&#x6be;" horiz-adv-x="794" arabic-form="final" 
d="M50 0v63h175q35 0 61 -5l2 3q-47 17 -77 61.5t-30 109.5q0 77 46 128.5t128 52.5l-18 38q32 22 79.5 36t88.5 14q220 0 220 -265q0 -3 -2 -28.5t-2 -48.5q0 -95 73 -96v-63q-90 0 -114 73q-58 -73 -164 -73h-466zM466 219q0 62 -28 100.5t-87 38.5q-55 0 -83.5 -38
t-28.5 -90q0 -65 41.5 -106.5t119.5 -53.5q32 20 49 63t17 86zM663 240q0 113 -43 156.5t-115 43.5q-67 0 -126 -28q70 -7 108 -58t38 -133q0 -97 -54 -154v-5h35q157 0 157 178z" />
    <glyph glyph-name="uni06BE.init" unicode="&#x6be;" horiz-adv-x="668" arabic-form="initial" 
d="M389 501q219 0 219 -264q0 -120 -60.5 -178.5t-150.5 -58.5h-397q-14 0 -24 8.5t-10 21.5t10 22.5t24 9.5h108q40 0 61 -3l2 3q-47 17 -76.5 61t-29.5 109q0 77 45.5 128.5t127.5 52.5l-18 38q32 22 80 36t89 14zM349 219q0 62 -28 100.5t-87 38.5q-55 0 -83.5 -38
t-28.5 -90q0 -64 42 -105.5t119 -53.5q32 20 49 62.5t17 85.5zM545 240q0 113 -42.5 156.5t-113.5 43.5q-68 0 -127 -28q70 -7 108 -58t38 -133q0 -95 -53 -153v-6h35q155 0 155 178z" />
    <glyph glyph-name="uni06BE.medi" unicode="&#x6be;" horiz-adv-x="677" arabic-form="medial" 
d="M546 240q0 113 -43 156.5t-114 43.5q-68 0 -127 -28q70 -7 108 -58t38 -133q0 -96 -53 -154v-5h35q156 0 156 178zM349 219q0 62 -28 100.5t-87 38.5q-55 0 -83.5 -38t-28.5 -90q0 -65 42 -106.5t119 -53.5q32 20 49 63t17 86zM399 0h-399q-16 0 -25 8.5t-9 22.5t9.5 23
t24.5 9h108q33 0 61 -4l2 3q-47 16 -76.5 61t-29.5 109q0 76 46 128t127 53l-18 38q32 22 79.5 36t88.5 14q220 0 220 -265q0 -46 -9 -92q3 -36 23 -58t55 -23v-63q-90 0 -114 73q-58 -73 -164 -73z" />
    <glyph glyph-name="uni06D2.fina" unicode="&#x6d2;" horiz-adv-x="253" arabic-form="final" 
d="M692 -205h-627v105q0 162 166 162h22v-62h-15q-59 0 -85 -24.5t-26 -81.5v-36h565v-63z" />
    <glyph glyph-name="uni06D3.fina" unicode="&#x6d3;" horiz-adv-x="428" arabic-form="final" 
d="M305 269h-64q-65 0 -89.5 -28t-24.5 -97v-286h689v-63h-751v378q0 80 43.5 122t115.5 42h144v-275h60v-62h-123v269zM251 599q42 0 71 -20l-17 -34q-24 14 -56 14q-56 0 -56 -47q0 -44 57 -44h72v-40h-199v40h42l1 3q-17 14 -17 44q0 33 25 58.5t77 25.5z" />
    <glyph glyph-name="uni06AD.fina" unicode="&#x6ad;" horiz-adv-x="737" arabic-form="final" 
d="M603 726h59v-556q0 -104 75 -107v-63q-83 0 -105 62q-22 -34 -53 -48t-86 -14h-159q-144 0 -206.5 65.5t-62.5 184.5v102h59v-75q0 -106 44.5 -160t158.5 -54h166q67 0 88.5 31.5t21.5 96.5v535zM398 472q42 0 71 -20l-17 -34q-24 14 -56 14q-56 0 -56 -47q0 -44 57 -44
h72v-40h-199v40h42l1 3q-17 14 -17 44q0 33 25 58.5t77 25.5zM464 522h-68v70h68v-70zM365 522h-68v70h68v-70zM415 626h-69v70h69v-70z" />
    <glyph glyph-name="uni06AD.init" unicode="&#x6ad;" horiz-adv-x="467" arabic-form="initial" 
d="M-34 31q0 14 9 23t25 9h350v91q0 53 -14 87.5t-54 60.5l-217 139v50l358 235l31 -45l-324 -212l190 -122q57 -37 73 -79.5t16 -104.5v-163h-409q-34 0 -34 31zM232 646h-49v52h49v-52zM166 646h-49v52h49v-52zM199 716h-49v52h49v-52z" />
    <glyph glyph-name="uni06AD.medi" unicode="&#x6ad;" horiz-adv-x="469" arabic-form="medial" 
d="M0 0q-16 0 -25 8.5t-9 22.5t9 22.5t25 8.5h350v92q0 53 -14 87.5t-54 60.5q-42 27 -120 77t-97 62v50l358 235l31 -45q-216 -142 -324 -212l190 -123q57 -37 73 -79.5t16 -104.5v-100h60v-62h-469zM232 646h-49v52h49v-52zM166 646h-49v52h49v-52zM199 716h-49v52h49v-52
z" />
    <glyph glyph-name="uni06C7.fina" unicode="&#x6c7;" horiz-adv-x="520" arabic-form="final" 
d="M520 62v-62h-60q-3 -102 -61.5 -153.5t-152.5 -51.5h-132v63h126q68 0 112.5 36t44.5 106h-108q-110 0 -167 53.5t-57 177.5q0 113 51.5 178.5t152.5 65.5q93 0 142 -56.5t49 -160.5v-196h60zM279 62h119v175q0 86 -31 130t-102 44q-69 0 -103.5 -47t-34.5 -134
q0 -94 40.5 -131t111.5 -37zM291 728q32 0 49.5 -20.5t17.5 -50.5q0 -56 -70 -79l-25 -8q-20 -5 -57.5 -15t-43.5 -12v40l99 29q-31 19 -31 54q0 25 17 43.5t44 18.5z" />
    <glyph glyph-name="uni06C6.fina" unicode="&#x6c6;" horiz-adv-x="520" arabic-form="final" 
d="M520 62v-62h-60q-3 -102 -61.5 -153.5t-152.5 -51.5h-132v63h126q68 0 112.5 36t44.5 106h-108q-110 0 -167 53.5t-57 177.5q0 113 51.5 178.5t152.5 65.5q93 0 142 -56.5t49 -160.5v-196h60zM279 62h119v175q0 86 -31 130t-102 44q-69 0 -103.5 -47t-34.5 -134
q0 -94 40.5 -131t111.5 -37zM239 555l-80 151l27 14l73 -107l74 107l27 -16l-81 -149h-40z" />
    <glyph glyph-name="uni06C8.fina" unicode="&#x6c8;" horiz-adv-x="520" arabic-form="final" 
d="M520 62v-62h-60q-3 -102 -61.5 -153.5t-152.5 -51.5h-132v63h126q68 0 112.5 36t44.5 106h-108q-110 0 -167 53.5t-57 177.5q0 113 51.5 178.5t152.5 65.5q93 0 142 -56.5t49 -160.5v-196h60zM279 62h119v175q0 86 -31 130t-102 44q-69 0 -103.5 -47t-34.5 -134
q0 -94 40.5 -131t111.5 -37zM281 727v-172h-43v172h43z" />
    <glyph glyph-name="uni06CB.fina" unicode="&#x6cb;" horiz-adv-x="520" arabic-form="final" 
d="M520 62v-62h-60q-3 -102 -61.5 -153.5t-152.5 -51.5h-132v63h126q68 0 112.5 36t44.5 106h-108q-110 0 -167 53.5t-57 177.5q0 113 51.5 178.5t152.5 65.5q93 0 142 -56.5t49 -160.5v-196h60zM279 62h119v175q0 86 -31 130t-102 44q-69 0 -103.5 -47t-34.5 -134
q0 -94 40.5 -131t111.5 -37zM343 555h-68v70h68v-70zM244 555h-68v70h68v-70zM294 659h-69v70h69v-70z" />
    <glyph glyph-name="uni06C5.fina" unicode="&#x6c5;" horiz-adv-x="520" arabic-form="final" 
d="M520 62v-62h-60q-3 -102 -61.5 -153.5t-152.5 -51.5h-132v63h126q87 0 128 53h-157v36h178q8 26 8 53h-108q-110 0 -167 53.5t-57 177.5q0 113 51.5 178.5t152.5 65.5q93 0 142 -56.5t49 -160.5v-196h60zM279 62h119v175q0 86 -31 130t-102 44q-69 0 -103.5 -47
t-34.5 -134q0 -94 40.5 -131t111.5 -37z" />
    <glyph glyph-name="uni06C9.fina" unicode="&#x6c9;" horiz-adv-x="520" arabic-form="final" 
d="M520 62v-62h-60q-3 -102 -61.5 -153.5t-152.5 -51.5h-132v63h126q68 0 112.5 36t44.5 106h-108q-110 0 -167 53.5t-57 177.5q0 113 51.5 178.5t152.5 65.5q93 0 142 -56.5t49 -160.5v-196h60zM279 62h119v175q0 86 -31 130t-102 44q-69 0 -103.5 -47t-34.5 -134
q0 -94 40.5 -131t111.5 -37zM159 569l80 151h40l81 -149l-27 -16l-74 107l-73 -107z" />
    <glyph glyph-name="uni06D0.fina" unicode="&#x6d0;" horiz-adv-x="836" arabic-form="final" 
d="M479 62v243q0 83 45 126.5t123 43.5h129v-413h60v-62h-119v411h-74q-57 0 -81 -31.5t-24 -94.5v-285h-204q-144 0 -206.5 65t-62.5 185v102h58v-75q0 -106 45 -160.5t159 -54.5h152zM404 -255h-69v70h69v-70zM404 -151h-69v70h69v-70z" />
    <glyph glyph-name="uni06D0.init" unicode="&#x6d0;" horiz-adv-x="197" arabic-form="initial" 
d="M-34 30q0 14 10 23.5t24 9.5q48 0 63 28t15 89v272h59v-271q0 -88 -30.5 -134.5t-106.5 -46.5q-14 0 -24 8.5t-10 21.5zM122 -256h-69v70h69v-70zM122 -152h-69v70h69v-70z" />
    <glyph glyph-name="uni06D0.medi" unicode="&#x6d0;" horiz-adv-x="213" arabic-form="medial" 
d="M111 58q-37 -58 -111 -58q-15 0 -24.5 8.5t-9.5 21.5q0 14 9.5 23.5t24.5 9.5q44 0 62 30t18 88v206h58v-216q0 -107 75 -108v-63q-32 0 -61 14t-41 44zM141 -255h-69v70h69v-70zM141 -151h-69v70h69v-70z" />
    <glyph glyph-name="uni0649.init" unicode="&#x649;" horiz-adv-x="197" arabic-form="initial" 
d="M-34 30q0 14 10 23.5t24 9.5q48 0 63 28t15 89v272h59v-271q0 -88 -30.5 -134.5t-106.5 -46.5q-14 0 -24 8.5t-10 21.5z" />
    <glyph glyph-name="uni0649.medi" unicode="&#x649;" horiz-adv-x="213" arabic-form="medial" 
d="M111 58q-37 -58 -111 -58q-15 0 -24.5 8.5t-9.5 21.5q0 14 9.5 23.5t24.5 9.5q44 0 62 30t18 88v206h58v-216q0 -107 75 -108v-63q-32 0 -61 14t-41 44z" />
    <glyph glyph-name="uni06CC.fina" unicode="&#x6cc;" horiz-adv-x="836" arabic-form="final" 
d="M479 62v243q0 83 45 126.5t123 43.5h129v-413h60v-62h-119v411h-74q-57 0 -81 -31.5t-24 -94.5v-285h-204q-144 0 -206.5 65t-62.5 185v102h58v-75q0 -106 45 -160.5t159 -54.5h152z" />
    <glyph glyph-name="uni06CC.init" unicode="&#x6cc;" horiz-adv-x="197" arabic-form="initial" 
d="M-34 30q0 14 10 23.5t24 9.5q48 0 63 28t15 89v272h59v-271q0 -88 -30.5 -134.5t-106.5 -46.5q-14 0 -24 8.5t-10 21.5zM182 -151h-68v70h68v-70zM83 -151h-68v70h68v-70z" />
    <glyph glyph-name="uni06CC.medi" unicode="&#x6cc;" horiz-adv-x="213" arabic-form="medial" 
d="M111 58q-37 -58 -111 -58q-15 0 -24.5 8.5t-9.5 21.5q0 14 9.5 23.5t24.5 9.5q44 0 62 30t18 88v206h58v-216q0 -107 75 -108v-63q-32 0 -61 14t-41 44zM190 -151h-68v70h68v-70zM91 -151h-68v70h68v-70z" />
    <glyph glyph-name="uni0651064C" unicode="&#xfc5e;" horiz-adv-x="0" arabic-form="isolated" 
d="M86 218q0 33 -28 33q-13 0 -21.5 -8t-8.5 -22q0 -28 38 -36q20 12 20 33zM-44 155l71 19v1q-29 15 -29 52q0 22 17 39t43 17q29 0 46 -17.5t17 -45.5q0 -17 -9 -31.5t-20 -23t-34 -17.5t-37 -13t-43.5 -11t-40.5 -10l-11 4v52q0 20 -6.5 28.5t-23.5 8.5q-10 0 -16 -1v27
q12 3 24 3q52 0 52 -57v-24zM8 17l-1 -1h-2q-2 -17 -17.5 -28t-35.5 -11q-53 0 -53 68v12l33 10v-27q0 -28 24 -28q12 0 19.5 8t7.5 21v42l33 10v-26q0 -32 25 -32q13 0 19.5 10t6.5 22v42l35 10v-50q0 -30 -14.5 -48.5t-42.5 -18.5q-27 0 -37 15z" />
    <glyph glyph-name="uni0651064D" unicode="&#xfc5f;" horiz-adv-x="0" arabic-form="isolated" 
d="M95 130v-36l-190 -49v34zM95 67v-35l-190 -48v34zM8 169l-1 -1h-2q-2 -17 -17.5 -28t-35.5 -11q-53 0 -53 68v12l33 10v-27q0 -28 24 -28q12 0 19.5 8t7.5 21v42l33 10v-26q0 -32 25 -32q13 0 19.5 10.5t6.5 22.5v41l35 10v-50q0 -30 -14.5 -48.5t-42.5 -18.5
q-26 0 -37 15z" />
    <glyph glyph-name="uni0651064E" unicode="&#xfc60;" horiz-adv-x="0" arabic-form="isolated" 
d="M95 190v-35l-190 -48v34zM8 17l-1 -1h-2q-2 -17 -17.5 -28t-35.5 -11q-53 0 -53 68v12l33 10v-27q0 -28 24 -28q12 0 19.5 8t7.5 21v42l33 10v-26q0 -32 25 -32q13 0 19.5 10t6.5 22v42l35 10v-50q0 -30 -14.5 -48.5t-42.5 -18.5q-27 0 -37 15z" />
    <glyph glyph-name="uni0651064F" unicode="&#xfc61;" horiz-adv-x="0" arabic-form="isolated" 
d="M34 276q29 0 46 -18.5t17 -44.5q0 -24 -15.5 -44t-45.5 -28l-133 -35v33q38 9 101 28q-29 17 -29 50q0 24 16 41.5t43 17.5zM63 211q0 16 -8.5 24.5t-20.5 8.5t-21 -8.5t-9 -21.5q0 -28 38 -37q21 11 21 34zM8 17l-1 -1h-2q-2 -17 -17.5 -28t-35.5 -11q-53 0 -53 68v12
l33 10v-27q0 -28 24 -28q12 0 19.5 8t7.5 21v42l33 10v-26q0 -32 25 -32q13 0 19.5 10t6.5 22v42l35 10v-50q0 -30 -14.5 -48.5t-42.5 -18.5q-27 0 -37 15z" />
    <glyph glyph-name="uni06510650" unicode="&#xfc62;" horiz-adv-x="0" arabic-form="isolated" 
d="M94 68v-36l-189 -48v34zM8 116h-1q-1 -1 -2 -1q-2 -17 -17.5 -28t-35.5 -11q-53 0 -53 68v12l33 10v-27q0 -28 24 -28q12 0 19.5 8t7.5 21v42l33 10v-26q0 -32 25 -32q13 0 19.5 10t6.5 22v42l35 10v-50q0 -30 -14.5 -48.5t-42.5 -18.5q-27 0 -37 15z" />
    <glyph glyph-name="uni06510670" unicode="&#xfc63;" horiz-adv-x="0" arabic-form="isolated" 
d="M8 17l-1 -1h-2q-2 -17 -17.5 -28t-35.5 -11q-53 0 -53 68v12l33 10v-27q0 -28 24 -28q12 0 19.5 8t7.5 21v42l33 10v-26q0 -32 25 -32q13 0 19.5 10t6.5 22v42l35 10v-50q0 -30 -14.5 -48.5t-42.5 -18.5q-27 0 -37 15zM23 131h-37v50q0 59 -10 95h39q8 -27 8 -89v-56z
" />
    <glyph glyph-name="uni06260631.fina" unicode="&#xfc64;" arabic-form="final" 
d="M438 0h-20q-60 0 -85 27.5t-25 93.5v80h-178v-199q0 -97 -42 -149.5t-140 -57.5v62q66 4 94 39.5t28 110.5v380h60v-123q26 1 178 1v187h60v-318q0 -39 12.5 -55t50.5 -16h7v-63zM339 726q42 0 71 -20l-17 -34q-24 14 -56 14q-56 0 -56 -47q0 -44 57 -44h72v-40h-199v40
h42l1 3q-17 14 -17 44q0 33 25 58.5t77 25.5z" />
    <glyph glyph-name="uni06260632.fina" unicode="&#xfc65;" arabic-form="final" 
d="M438 0h-20q-60 0 -85 27.5t-25 93.5v80h-178v-199q0 -97 -42 -149.5t-140 -57.5v62q66 4 94 39.5t28 110.5v380h60v-123q26 1 178 1v187h60v-318q0 -39 12.5 -55t50.5 -16h7v-63zM339 726q42 0 71 -20l-17 -34q-24 14 -56 14q-56 0 -56 -47q0 -44 57 -44h72v-40h-199v40
h42l1 3q-17 14 -17 44q0 33 25 58.5t77 25.5zM131 470h-69v70h69v-70z" />
    <glyph glyph-name="uni06260646.fina" unicode="&#xfc67;" horiz-adv-x="764" arabic-form="final" 
d="M764 0h-20q-60 0 -84.5 27.5t-24.5 93.5v80h-180v-207q0 -87 -53 -143t-143 -56q-94 0 -144 51t-50 141v295h59v-277q0 -70 34 -108t102 -38t102.5 41.5t34.5 109.5v377h58v-122h180v187h59v-318q0 -39 12.5 -55t50.5 -16h7v-63zM649 726q42 0 71 -20l-17 -34
q-24 14 -56 14q-56 0 -56 -47q0 -44 57 -44h72v-40h-199v40h42l1 3q-17 14 -17 44q0 33 25 58.5t77 25.5zM291 450h-69v70h69v-70z" />
    <glyph glyph-name="uni06260649.fina" unicode="&#xfc68;" horiz-adv-x="836" arabic-form="final" 
d="M479 62v243q0 83 45 126.5t123 43.5h129v-413h60v-62h-119v411h-74q-57 0 -81 -31.5t-24 -94.5v-285h-204q-144 0 -206.5 65t-62.5 185v102h58v-75q0 -106 45 -160.5t159 -54.5h152zM719 726q42 0 71 -20l-17 -34q-24 14 -56 14q-56 0 -56 -47q0 -44 57 -44h72v-40h-199
v40h42l1 3q-17 14 -17 44q0 33 25 58.5t77 25.5z" />
    <glyph glyph-name="uni0626064A.fina" unicode="&#xfc69;" horiz-adv-x="836" arabic-form="final" 
d="M479 62v243q0 83 45 126.5t123 43.5h129v-413h60v-62h-119v411h-74q-57 0 -81 -31.5t-24 -94.5v-285h-204q-144 0 -206.5 65t-62.5 185v102h58v-75q0 -106 45 -160.5t159 -54.5h152zM719 726q42 0 71 -20l-17 -34q-24 14 -56 14q-56 0 -56 -47q0 -44 57 -44h72v-40h-199
v40h42l1 3q-17 14 -17 44q0 33 25 58.5t77 25.5zM453 -151h-68v70h68v-70zM354 -151h-68v70h68v-70z" />
    <glyph glyph-name="uni06280631.fina" unicode="&#xfc6a;" arabic-form="final" 
d="M438 0h-20q-60 0 -85 27.5t-25 93.5v80h-178v-199q0 -97 -42 -149.5t-140 -57.5v62q66 4 94 39.5t28 110.5v380h60v-123q26 1 178 1v187h60v-318q0 -39 12.5 -55t50.5 -16h7v-63zM385 -151h-69v70h69v-70z" />
    <glyph glyph-name="uni06280632.fina" unicode="&#xfc6b;" arabic-form="final" 
d="M438 0h-20q-60 0 -85 27.5t-25 93.5v80h-178v-199q0 -97 -42 -149.5t-140 -57.5v62q66 4 94 39.5t28 110.5v380h60v-123q26 1 178 1v187h60v-318q0 -39 12.5 -55t50.5 -16h7v-63zM385 -151h-69v70h69v-70zM131 470h-69v70h69v-70z" />
    <glyph glyph-name="uni06280646.fina" unicode="&#xfc6d;" horiz-adv-x="764" arabic-form="final" 
d="M764 0h-20q-60 0 -84.5 27.5t-24.5 93.5v80h-180v-207q0 -87 -53 -143t-143 -56q-94 0 -144 51t-50 141v295h59v-277q0 -70 34 -108t102 -38t102.5 41.5t34.5 109.5v377h58v-122h180v187h59v-318q0 -39 12.5 -55t50.5 -16h7v-63zM655 -151h-69v70h69v-70zM291 450h-69v70
h69v-70z" />
    <glyph glyph-name="uni06280649.fina" unicode="&#xfc6e;" horiz-adv-x="836" arabic-form="final" 
d="M479 62v243q0 83 45 126.5t123 43.5h129v-413h60v-62h-119v411h-74q-57 0 -81 -31.5t-24 -94.5v-285h-204q-144 0 -206.5 65t-62.5 185v102h58v-75q0 -106 45 -160.5t159 -54.5h152zM725 -151h-69v70h69v-70z" />
    <glyph glyph-name="uni0628064A.fina" unicode="&#xfc6f;" horiz-adv-x="836" arabic-form="final" 
d="M479 62v243q0 83 45 126.5t123 43.5h129v-413h60v-62h-119v411h-74q-57 0 -81 -31.5t-24 -94.5v-285h-204q-144 0 -206.5 65t-62.5 185v102h58v-75q0 -106 45 -160.5t159 -54.5h152zM725 -151h-69v70h69v-70zM453 -151h-68v70h68v-70zM354 -151h-68v70h68v-70z" />
    <glyph glyph-name="uni062A0631.fina" unicode="&#xfc70;" arabic-form="final" 
d="M438 0h-20q-60 0 -85 27.5t-25 93.5v80h-178v-199q0 -97 -42 -149.5t-140 -57.5v62q66 4 94 39.5t28 110.5v380h60v-123q26 1 178 1v187h60v-318q0 -39 12.5 -55t50.5 -16h7v-63zM414 555h-68v70h68v-70zM315 555h-68v70h68v-70z" />
    <glyph glyph-name="uni062A0632.fina" unicode="&#xfc71;" arabic-form="final" 
d="M438 0h-20q-60 0 -85 27.5t-25 93.5v80h-178v-199q0 -97 -42 -149.5t-140 -57.5v62q66 4 94 39.5t28 110.5v380h60v-123q26 1 178 1v187h60v-318q0 -39 12.5 -55t50.5 -16h7v-63zM414 555h-68v70h68v-70zM315 555h-68v70h68v-70zM131 470h-69v70h69v-70z" />
    <glyph glyph-name="uni062A0646.fina" unicode="&#xfc73;" horiz-adv-x="764" arabic-form="final" 
d="M764 0h-20q-60 0 -84.5 27.5t-24.5 93.5v80h-180v-207q0 -87 -53 -143t-143 -56q-94 0 -144 51t-50 141v295h59v-277q0 -70 34 -108t102 -38t102.5 41.5t34.5 109.5v377h58v-122h180v187h59v-318q0 -39 12.5 -55t50.5 -16h7v-63zM704 555h-68v70h68v-70zM605 555h-68v70
h68v-70zM291 450h-69v70h69v-70z" />
    <glyph glyph-name="uni062A0649.fina" unicode="&#xfc74;" horiz-adv-x="836" arabic-form="final" 
d="M479 62v243q0 83 45 126.5t123 43.5h129v-413h60v-62h-119v411h-74q-57 0 -81 -31.5t-24 -94.5v-285h-204q-144 0 -206.5 65t-62.5 185v102h58v-75q0 -106 45 -160.5t159 -54.5h152zM774 555h-68v70h68v-70zM675 555h-68v70h68v-70z" />
    <glyph glyph-name="uni062A064A.fina" unicode="&#xfc75;" horiz-adv-x="836" arabic-form="final" 
d="M479 62v243q0 83 45 126.5t123 43.5h129v-413h60v-62h-119v411h-74q-57 0 -81 -31.5t-24 -94.5v-285h-204q-144 0 -206.5 65t-62.5 185v102h58v-75q0 -106 45 -160.5t159 -54.5h152zM774 555h-68v70h68v-70zM675 555h-68v70h68v-70zM453 -151h-68v70h68v-70zM354 -151
h-68v70h68v-70z" />
    <glyph glyph-name="uni062B0631.fina" unicode="&#xfc76;" arabic-form="final" 
d="M438 0h-20q-60 0 -85 27.5t-25 93.5v80h-178v-199q0 -97 -42 -149.5t-140 -57.5v62q66 4 94 39.5t28 110.5v380h60v-123q26 1 178 1v187h60v-318q0 -39 12.5 -55t50.5 -16h7v-63zM414 555h-68v70h68v-70zM315 555h-68v70h68v-70zM365 659h-69v70h69v-70z" />
    <glyph glyph-name="uni062B0632.fina" unicode="&#xfc77;" arabic-form="final" 
d="M438 0h-20q-60 0 -85 27.5t-25 93.5v80h-178v-199q0 -97 -42 -149.5t-140 -57.5v62q66 4 94 39.5t28 110.5v380h60v-123q26 1 178 1v187h60v-318q0 -39 12.5 -55t50.5 -16h7v-63zM414 555h-68v70h68v-70zM315 555h-68v70h68v-70zM365 659h-69v70h69v-70zM131 470h-69v70
h69v-70z" />
    <glyph glyph-name="uni062B0646.fina" unicode="&#xfc79;" horiz-adv-x="764" arabic-form="final" 
d="M764 0h-20q-60 0 -84.5 27.5t-24.5 93.5v80h-180v-207q0 -87 -53 -143t-143 -56q-94 0 -144 51t-50 141v295h59v-277q0 -70 34 -108t102 -38t102.5 41.5t34.5 109.5v377h58v-122h180v187h59v-318q0 -39 12.5 -55t50.5 -16h7v-63zM704 555h-68v70h68v-70zM605 555h-68v70
h68v-70zM655 659h-69v70h69v-70zM291 450h-69v70h69v-70z" />
    <glyph glyph-name="uni062B0649.fina" unicode="&#xfc7a;" horiz-adv-x="836" arabic-form="final" 
d="M479 62v243q0 83 45 126.5t123 43.5h129v-413h60v-62h-119v411h-74q-57 0 -81 -31.5t-24 -94.5v-285h-204q-144 0 -206.5 65t-62.5 185v102h58v-75q0 -106 45 -160.5t159 -54.5h152zM774 555h-68v70h68v-70zM675 555h-68v70h68v-70zM725 659h-69v70h69v-70z" />
    <glyph glyph-name="uni062B064A.fina" unicode="&#xfc7b;" horiz-adv-x="836" arabic-form="final" 
d="M479 62v243q0 83 45 126.5t123 43.5h129v-413h60v-62h-119v411h-74q-57 0 -81 -31.5t-24 -94.5v-285h-204q-144 0 -206.5 65t-62.5 185v102h58v-75q0 -106 45 -160.5t159 -54.5h152zM774 555h-68v70h68v-70zM675 555h-68v70h68v-70zM725 659h-69v70h69v-70zM453 -151h-68
v70h68v-70zM354 -151h-68v70h68v-70z" />
    <glyph glyph-name="uni06460631.fina" unicode="&#xfc8a;" arabic-form="final" 
d="M438 0h-20q-60 0 -85 27.5t-25 93.5v80h-178v-199q0 -97 -42 -149.5t-140 -57.5v62q66 4 94 39.5t28 110.5v380h60v-123q26 1 178 1v187h60v-318q0 -39 12.5 -55t50.5 -16h7v-63zM365 555h-69v70h69v-70z" />
    <glyph glyph-name="uni06460632.fina" unicode="&#xfc8b;" arabic-form="final" 
d="M438 0h-20q-60 0 -85 27.5t-25 93.5v80h-178v-199q0 -97 -42 -149.5t-140 -57.5v62q66 4 94 39.5t28 110.5v380h60v-123q26 1 178 1v187h60v-318q0 -39 12.5 -55t50.5 -16h7v-63zM365 555h-69v70h69v-70zM131 470h-69v70h69v-70z" />
    <glyph glyph-name="uni06460646.fina" unicode="&#xfc8d;" horiz-adv-x="764" arabic-form="final" 
d="M764 0h-20q-60 0 -84.5 27.5t-24.5 93.5v80h-180v-207q0 -87 -53 -143t-143 -56q-94 0 -144 51t-50 141v295h59v-277q0 -70 34 -108t102 -38t102.5 41.5t34.5 109.5v377h58v-122h180v187h59v-318q0 -39 12.5 -55t50.5 -16h7v-63zM655 555h-69v70h69v-70zM291 450h-69v70
h69v-70z" />
    <glyph glyph-name="uni06460649.fina" unicode="&#xfc8e;" horiz-adv-x="836" arabic-form="final" 
d="M479 62v243q0 83 45 126.5t123 43.5h129v-413h60v-62h-119v411h-74q-57 0 -81 -31.5t-24 -94.5v-285h-204q-144 0 -206.5 65t-62.5 185v102h58v-75q0 -106 45 -160.5t159 -54.5h152zM725 555h-69v70h69v-70z" />
    <glyph glyph-name="uni0646064A.fina" unicode="&#xfc8f;" horiz-adv-x="836" arabic-form="final" 
d="M479 62v243q0 83 45 126.5t123 43.5h129v-413h60v-62h-119v411h-74q-57 0 -81 -31.5t-24 -94.5v-285h-204q-144 0 -206.5 65t-62.5 185v102h58v-75q0 -106 45 -160.5t159 -54.5h152zM725 555h-69v70h69v-70zM453 -151h-68v70h68v-70zM354 -151h-68v70h68v-70z" />
    <glyph glyph-name="uni064A0631.fina" unicode="&#xfc91;" arabic-form="final" 
d="M438 0h-20q-60 0 -85 27.5t-25 93.5v80h-178v-199q0 -97 -42 -149.5t-140 -57.5v62q66 4 94 39.5t28 110.5v380h60v-123q26 1 178 1v187h60v-318q0 -39 12.5 -55t50.5 -16h7v-63zM414 -151h-68v70h68v-70zM315 -151h-68v70h68v-70z" />
    <glyph glyph-name="uni064A0632.fina" unicode="&#xfc92;" arabic-form="final" 
d="M438 0h-20q-60 0 -85 27.5t-25 93.5v80h-178v-199q0 -97 -42 -149.5t-140 -57.5v62q66 4 94 39.5t28 110.5v380h60v-123q26 1 178 1v187h60v-318q0 -39 12.5 -55t50.5 -16h7v-63zM414 -151h-68v70h68v-70zM315 -151h-68v70h68v-70zM131 470h-69v70h69v-70z" />
    <glyph glyph-name="uni064A0646.fina" unicode="&#xfc94;" horiz-adv-x="764" arabic-form="final" 
d="M764 0h-20q-60 0 -84.5 27.5t-24.5 93.5v80h-180v-207q0 -87 -53 -143t-143 -56q-94 0 -144 51t-50 141v295h59v-277q0 -70 34 -108t102 -38t102.5 41.5t34.5 109.5v377h58v-122h180v187h59v-318q0 -39 12.5 -55t50.5 -16h7v-63zM704 -151h-68v70h68v-70zM605 -151h-68
v70h68v-70zM291 450h-69v70h69v-70z" />
    <glyph glyph-name="uni064A0649.fina" unicode="&#xfc95;" horiz-adv-x="836" arabic-form="final" 
d="M479 62v243q0 83 45 126.5t123 43.5h129v-413h60v-62h-119v411h-74q-57 0 -81 -31.5t-24 -94.5v-285h-204q-144 0 -206.5 65t-62.5 185v102h58v-75q0 -106 45 -160.5t159 -54.5h152zM774 -151h-68v70h68v-70zM675 -151h-68v70h68v-70z" />
    <glyph glyph-name="uni064A064A.fina" unicode="&#xfc96;" horiz-adv-x="836" arabic-form="final" 
d="M479 62v243q0 83 45 126.5t123 43.5h129v-413h60v-62h-119v411h-74q-57 0 -81 -31.5t-24 -94.5v-285h-204q-144 0 -206.5 65t-62.5 185v102h58v-75q0 -106 45 -160.5t159 -54.5h152zM774 -151h-68v70h68v-70zM675 -151h-68v70h68v-70zM453 -151h-68v70h68v-70zM354 -151
h-68v70h68v-70z" />
    <glyph glyph-name="uniFCF2" unicode="&#xfcf2;" horiz-adv-x="251" arabic-form="medial" 
d="M220 676v-35l-190 -48v34zM133 508h-3q-2 -18 -17.5 -29t-35.5 -11q-53 0 -53 68v12l34 10v-27q0 -28 23 -28q11 0 19 8.5t8 21.5v41l33 10v-26q0 -32 25 -32q13 0 20 10.5t7 22.5v41l34 10v-49q0 -31 -14.5 -49.5t-42.5 -18.5q-26 0 -37 15zM-35 30q0 14 10 23.5t25 9.5
h251v-63h-251q-15 0 -25 8.5t-10 21.5z" />
    <glyph glyph-name="uniFCF3" unicode="&#xfcf3;" horiz-adv-x="251" arabic-form="medial" 
d="M159 762q29 0 46 -18.5t17 -44.5q0 -24 -15.5 -44t-45.5 -28l-133 -35v33q38 9 101 28q-29 17 -29 50q0 24 16 41.5t43 17.5zM188 697q0 33 -29 33q-12 0 -20.5 -8.5t-8.5 -21.5q0 -28 37 -37q21 11 21 34zM133 508h-3q-2 -18 -17.5 -29t-35.5 -11q-53 0 -53 68v12l34 10
v-27q0 -28 23 -28q11 0 19 8.5t8 21.5v41l33 10v-26q0 -32 25 -32q13 0 20 10.5t7 22.5v41l34 10v-49q0 -31 -14.5 -49.5t-42.5 -18.5q-26 0 -37 15zM-35 30q0 14 10 23.5t25 9.5h251v-63h-251q-15 0 -25 8.5t-10 21.5z" />
    <glyph glyph-name="uniFCF4" unicode="&#xfcf4;" horiz-adv-x="251" arabic-form="medial" 
d="M220 564v-36l-189 -48v34zM133 601q-1 0 -3 -1q-2 -17 -17.5 -28t-35.5 -11q-53 0 -53 68v12l34 10v-27q0 -28 23 -28q12 0 19.5 8t7.5 21v42l33 10v-26q0 -32 25 -32q13 0 20 10.5t7 22.5v41l34 10v-50q0 -30 -14.5 -48.5t-42.5 -18.5q-26 0 -37 15zM-35 30
q0 14 10 23.5t25 9.5h251v-63h-251q-15 0 -25 8.5t-10 21.5z" />
    <glyph glyph-name="uniFE70" unicode="&#xfe70;" horiz-adv-x="191" arabic-form="isolated" 
d="M191 825v-36l-191 -52v35zM191 763v-35l-191 -51v34z" />
    <glyph glyph-name="uniFE71" unicode="&#xfe71;" horiz-adv-x="239" arabic-form="medial" 
d="M215 618v-36l-191 -52v35zM215 556v-35l-191 -51v34zM-35 30q0 14 10 23.5t25 9.5h239v-63h-239q-15 0 -25 8.5t-10 21.5z" />
    <glyph glyph-name="uniFE72" unicode="&#xfe72;" horiz-adv-x="240" arabic-form="isolated" 
d="M206 781q0 33 -29 33q-12 0 -20.5 -7.5t-8.5 -21.5q0 -30 37 -36q21 10 21 32zM76 718l71 19v2q-29 15 -29 51q0 22 16.5 39.5t42.5 17.5q29 0 46 -18t17 -46q0 -15 -5.5 -27.5t-17.5 -21.5t-23.5 -16t-32 -13t-33.5 -9.5t-37 -9t-34 -8.5l-11 3v52q0 21 -6.5 29t-23.5 8
q-11 0 -16 -1v27q12 3 23 3q53 0 53 -57v-24z" />
    <glyph glyph-name="uniFE74" unicode="&#xfe74;" horiz-adv-x="191" arabic-form="isolated" 
d="M191 -185v-36l-191 -48v34zM191 -247v-35l-191 -48v34z" />
    <glyph glyph-name="uniFE76" unicode="&#xfe76;" horiz-adv-x="191" arabic-form="isolated" 
d="M191 760v-35l-191 -47v34z" />
    <glyph glyph-name="uniFE77" unicode="&#xfe77;" horiz-adv-x="239" arabic-form="medial" 
d="M215 553v-35l-191 -47v34zM-35 30q0 14 10 23.5t25 9.5h239v-63h-239q-15 0 -25 8.5t-10 21.5z" />
    <glyph glyph-name="uniFE78" unicode="&#xfe78;" horiz-adv-x="194" arabic-form="isolated" 
d="M131 850q29 0 46 -19t17 -44q0 -24 -15.5 -44.5t-45.5 -27.5l-133 -36v33q48 11 101 29q-29 15 -29 49q0 24 16 42t43 18zM160 784q0 33 -29 33q-12 0 -20.5 -8.5t-8.5 -21.5q0 -28 37 -36q21 11 21 33z" />
    <glyph glyph-name="uniFE79" unicode="&#xfe79;" horiz-adv-x="243" arabic-form="medial" 
d="M156 642q28 0 45.5 -19t17.5 -44q0 -24 -16 -44.5t-46 -27.5l-133 -35v32q53 12 101 29q-29 17 -29 49q0 24 16.5 42t43.5 18zM184 576q0 33 -28 33q-13 0 -21.5 -8t-8.5 -21q0 -29 38 -37q20 12 20 33zM-35 30q0 14 10 23.5t25 9.5h243v-63h-243q-15 0 -25 8.5t-10 21.5
z" />
    <glyph glyph-name="uniFE7A" unicode="&#xfe7a;" horiz-adv-x="190" arabic-form="isolated" 
d="M190 -185v-36l-190 -48v34z" />
    <glyph glyph-name="uniFE7B" unicode="&#xfe7b;" horiz-adv-x="238" arabic-form="medial" 
d="M214 -91v-36l-190 -49v35zM-35 30q0 14 10 23.5t25 9.5h238v-63h-238q-15 0 -25 8.5t-10 21.5z" />
    <glyph glyph-name="uniFE7C" unicode="&#xfe7c;" horiz-adv-x="202" arabic-form="isolated" 
d="M109 715h-3q-2 -18 -17.5 -29t-35.5 -11q-53 0 -53 68v12l33 10v-27q0 -28 24 -28q11 0 19 8.5t8 21.5v41l33 10v-26q0 -32 25 -32q13 0 19.5 10.5t6.5 22.5v41l34 10v-49q0 -31 -14.5 -49.5t-41.5 -18.5q-26 0 -37 15z" />
    <glyph glyph-name="uniFE7D" unicode="&#xfe7d;" horiz-adv-x="251" arabic-form="medial" 
d="M133 508h-3q-2 -18 -17.5 -29t-35.5 -11q-53 0 -53 68v12l34 10v-27q0 -28 23 -28q11 0 19 8.5t8 21.5v41l33 10v-26q0 -32 25 -32q13 0 20 10.5t7 22.5v41l34 10v-49q0 -31 -14.5 -49.5t-42.5 -18.5q-26 0 -37 15zM-35 30q0 14 10 23.5t25 9.5h251v-63h-251
q-15 0 -25 8.5t-10 21.5z" />
    <glyph glyph-name="uniFE7E" unicode="&#xfe7e;" horiz-adv-x="147" arabic-form="isolated" 
d="M0 756q0 32 21 54t53 22q33 0 53 -21.5t20 -54.5t-20 -55.5t-53 -22.5t-53.5 23t-20.5 55zM115 755q0 18 -11.5 31t-29.5 13t-29.5 -13t-11.5 -31q0 -17 11.5 -30.5t29.5 -13.5q19 0 30 13t11 31z" />
    <glyph glyph-name="uniFE7F" unicode="&#xfe7f;" horiz-adv-x="195" arabic-form="medial" 
d="M24 549q0 32 21 54t53 22q33 0 53 -21.5t20 -54.5t-20 -55.5t-53 -22.5t-53.5 23t-20.5 55zM139 548q0 18 -11.5 31t-29.5 13q-17 0 -28.5 -13t-11.5 -31t11 -31t29 -13q19 0 30 13t11 31zM-35 30q0 14 10 23.5t25 9.5h195v-63h-195q-15 0 -25 8.5t-10 21.5z" />
    <glyph glyph-name="uni0622.fina" unicode="&#x622;" horiz-adv-x="194" arabic-form="final" 
d="M194 0h-20q-60 0 -84.5 27.5t-24.5 93.5v555h59v-542q0 -39 12.5 -55t50.5 -16h7v-63zM-7 711q-1 3 -1 9v37l80 47h8q11 -26 25 -35t45 -9h52v-40h-58q-33 0 -49.5 5.5t-28.5 23.5h-6z" />
    <glyph glyph-name="uni0623.fina" unicode="&#x623;" horiz-adv-x="194" arabic-form="final" 
d="M194 0h-20q-60 0 -84.5 27.5t-24.5 93.5v555h59v-542q0 -39 12.5 -55t50.5 -16h7v-63zM126 911q42 0 71 -20l-17 -34q-24 14 -56 14q-56 0 -56 -47q0 -44 57 -44h72v-40h-199v40h42l1 3q-17 14 -17 44q0 33 25 58.5t77 25.5z" />
    <glyph glyph-name="uni0624.fina" unicode="&#x624;" horiz-adv-x="520" arabic-form="final" 
d="M520 62v-62h-60q-3 -102 -61.5 -153.5t-152.5 -51.5h-132v63h126q68 0 112.5 36t44.5 106h-108q-110 0 -167 53.5t-57 177.5q0 113 51.5 178.5t152.5 65.5q93 0 142 -56.5t49 -160.5v-196h60zM279 62h119v175q0 86 -31 130t-102 44q-69 0 -103.5 -47t-34.5 -134
q0 -94 40.5 -131t111.5 -37zM288 726q42 0 71 -20l-17 -34q-24 14 -56 14q-56 0 -56 -47q0 -44 57 -44h72v-40h-199v40h42l1 3q-17 14 -17 44q0 33 25 58.5t77 25.5z" />
    <glyph glyph-name="uni0625.fina" unicode="&#x625;" horiz-adv-x="194" arabic-form="final" 
d="M194 0h-20q-60 0 -84.5 27.5t-24.5 93.5v605h59v-592q0 -39 12.5 -55t50.5 -16h7v-63zM126 -81q42 0 71 -20l-17 -34q-24 14 -56 14q-56 0 -56 -47q0 -44 57 -44h72v-40h-199v40h42l1 3q-17 14 -17 44q0 33 25 58.5t77 25.5z" />
    <glyph glyph-name="uni0626.fina" unicode="&#x626;" horiz-adv-x="836" arabic-form="final" 
d="M479 62v243q0 83 45 126.5t123 43.5h129v-413h60v-62h-119v411h-74q-57 0 -81 -31.5t-24 -94.5v-285h-204q-144 0 -206.5 65t-62.5 185v102h58v-75q0 -106 45 -160.5t159 -54.5h152zM193 602q42 0 71 -20l-17 -34q-24 14 -56 14q-56 0 -56 -47q0 -44 57 -44h72v-40h-199
v40h42l1 3q-17 14 -17 44q0 33 25 58.5t77 25.5z" />
    <glyph glyph-name="uni0626.init" unicode="&#x626;" horiz-adv-x="197" arabic-form="initial" 
d="M-34 30q0 14 10 23.5t24 9.5q48 0 63 28t15 89v272h59v-271q0 -88 -30.5 -134.5t-106.5 -46.5q-14 0 -24 8.5t-10 21.5zM127 701q42 0 71 -20l-17 -34q-24 14 -56 14q-56 0 -56 -47q0 -44 57 -44h72v-40h-199v40h42l1 3q-17 14 -17 44q0 33 25 58.5t77 25.5z" />
    <glyph glyph-name="uni0626.medi" unicode="&#x626;" horiz-adv-x="213" arabic-form="medial" 
d="M111 58q-37 -58 -111 -58q-15 0 -24.5 8.5t-9.5 21.5q0 14 9.5 23.5t24.5 9.5q44 0 62 30t18 88v206h58v-216q0 -107 75 -108v-63q-32 0 -61 14t-41 44zM135 641q42 0 71 -20l-17 -34q-24 14 -56 14q-56 0 -56 -47q0 -44 57 -44h72v-40h-199v40h42l1 3q-17 14 -17 44
q0 33 25 58.5t77 25.5z" />
    <glyph glyph-name="uni0627.fina" unicode="&#x627;" horiz-adv-x="194" arabic-form="final" 
d="M194 0h-20q-60 0 -84.5 27.5t-24.5 93.5v605h59v-592q0 -39 12.5 -55t50.5 -16h7v-63z" />
    <glyph glyph-name="uni0628.fina" unicode="&#x628;" horiz-adv-x="737" arabic-form="final" 
d="M603 386h59v-216q0 -104 75 -107v-63q-83 0 -105 62q-22 -34 -53 -48t-86 -14h-159q-144 0 -206.5 65.5t-62.5 184.5v102h59v-75q0 -106 44.5 -160t158.5 -54h166q67 0 88.5 31.5t21.5 96.5v195zM400 -151h-69v70h69v-70z" />
    <glyph glyph-name="uni0628.init" unicode="&#x628;" horiz-adv-x="197" arabic-form="initial" 
d="M-34 30q0 14 10 23.5t24 9.5q48 0 63 28t15 89v272h59v-271q0 -88 -30.5 -134.5t-106.5 -46.5q-14 0 -24 8.5t-10 21.5zM113 -151h-69v70h69v-70z" />
    <glyph glyph-name="uni0628.medi" unicode="&#x628;" horiz-adv-x="213" arabic-form="medial" 
d="M111 58q-37 -58 -111 -58q-15 0 -24.5 8.5t-9.5 21.5q0 14 9.5 23.5t24.5 9.5q44 0 62 30t18 88v206h58v-216q0 -107 75 -108v-63q-32 0 -61 14t-41 44zM141 -151h-69v70h69v-70z" />
    <glyph glyph-name="uni0629.fina" unicode="&#x629;" horiz-adv-x="530" arabic-form="final" 
d="M397 475h58v-276q0 -70 15.5 -102.5t59.5 -33.5v-63q-54 0 -85.5 28t-39.5 77q-60 -71 -164 -71q-84 0 -130 41.5t-46 112.5q0 37 13.5 72t47 72t103 63.5t168.5 34.5v45zM127 194q0 -44 31 -72.5t90 -28.5q36 0 67.5 11t56.5 42t25 78v147q-77 -6 -133 -24.5t-84 -45.5
t-40.5 -53t-12.5 -54zM345 530h-68v70h68v-70zM246 530h-68v70h68v-70z" />
    <glyph glyph-name="uni062A.fina" unicode="&#x62a;" horiz-adv-x="737" arabic-form="final" 
d="M603 386h59v-216q0 -104 75 -107v-63q-83 0 -105 62q-22 -34 -53 -48t-86 -14h-159q-144 0 -206.5 65.5t-62.5 184.5v102h59v-75q0 -106 44.5 -160t158.5 -54h166q67 0 88.5 31.5t21.5 96.5v195zM443 450h-68v70h68v-70zM344 450h-68v70h68v-70z" />
    <glyph glyph-name="uni062A.init" unicode="&#x62a;" horiz-adv-x="197" arabic-form="initial" 
d="M-34 30q0 14 10 23.5t24 9.5q48 0 63 28t15 89v272h59v-271q0 -88 -30.5 -134.5t-106.5 -46.5q-14 0 -24 8.5t-10 21.5zM182 530h-68v70h68v-70zM83 530h-68v70h68v-70z" />
    <glyph glyph-name="uni062A.medi" unicode="&#x62a;" horiz-adv-x="213" arabic-form="medial" 
d="M111 58q-37 -58 -111 -58q-15 0 -24.5 8.5t-9.5 21.5q0 14 9.5 23.5t24.5 9.5q44 0 62 30t18 88v206h58v-216q0 -107 75 -108v-63q-32 0 -61 14t-41 44zM190 470h-68v70h68v-70zM91 470h-68v70h68v-70z" />
    <glyph glyph-name="uni062B.fina" unicode="&#x62b;" horiz-adv-x="737" arabic-form="final" 
d="M603 386h59v-216q0 -104 75 -107v-63q-83 0 -105 62q-22 -34 -53 -48t-86 -14h-159q-144 0 -206.5 65.5t-62.5 184.5v102h59v-75q0 -106 44.5 -160t158.5 -54h166q67 0 88.5 31.5t21.5 96.5v195zM443 449h-68v70h68v-70zM344 449h-68v70h68v-70zM394 553h-69v70h69v-70z
" />
    <glyph glyph-name="uni062B.init" unicode="&#x62b;" horiz-adv-x="197" arabic-form="initial" 
d="M-34 30q0 14 10 23.5t24 9.5q48 0 63 28t15 89v272h59v-271q0 -88 -30.5 -134.5t-106.5 -46.5q-14 0 -24 8.5t-10 21.5zM182 530h-68v70h68v-70zM83 530h-68v70h68v-70zM133 634h-69v70h69v-70z" />
    <glyph glyph-name="uni062B.medi" unicode="&#x62b;" horiz-adv-x="213" arabic-form="medial" 
d="M111 58q-37 -58 -111 -58q-15 0 -24.5 8.5t-9.5 21.5q0 14 9.5 23.5t24.5 9.5q44 0 62 30t18 88v206h58v-216q0 -107 75 -108v-63q-32 0 -61 14t-41 44zM190 470h-68v70h68v-70zM91 470h-68v70h68v-70zM141 574h-69v70h69v-70z" />
    <glyph glyph-name="uni062C.fina" unicode="&#x62c;" horiz-adv-x="524" arabic-form="final" 
d="M419 62l3 4q-25 25 -34 106q-5 48 -8.5 73.5t-10 57.5t-14.5 48t-20.5 31.5t-30.5 21.5t-42 6q-64 0 -129 -36q-11 24 -26 53q76 47 154 47q77 0 118 -42.5t51 -103t14 -121t20 -103t56 -42.5h4v-62h-274q-57 0 -90 -30.5t-33 -81.5q0 -53 41 -77t103 -24q41 0 86 9
q5 -20 13 -60q-41 -12 -107 -12q-97 0 -147.5 43t-50.5 122q0 85 56.5 129t138.5 44h159zM334 -131h-69v70h69v-70z" />
    <glyph glyph-name="uni062C.init" unicode="&#x62c;" horiz-adv-x="474" arabic-form="initial" 
d="M0 0q-16 0 -25 9t-9 23t9 22t25 8h377l3 4q-27 28 -34 105q-13 133 -27 172q-26 67 -99 67q-65 0 -129 -36q-11 24 -26 53q76 47 154 47q61 0 100 -26t53.5 -65.5t22.5 -88.5t9 -93t12 -82t33 -53v-66h-449zM266 -151h-69v70h69v-70z" />
    <glyph glyph-name="uni062C.medi" unicode="&#x62c;" horiz-adv-x="482" arabic-form="medial" 
d="M482 0h-482q-34 0 -34 31q0 14 9 22.5t25 8.5h377l3 4q-25 25 -34 106q-5 48 -8.5 73.5t-10 57.5t-14.5 48t-20.5 31.5t-30.5 21.5t-42 6q-65 0 -129 -36q-11 24 -26 53q76 47 154 47q56 0 93.5 -22.5t53.5 -59t24.5 -80.5t12 -88t9 -80.5t21.5 -59t45 -22.5h4v-62z
M266 -151h-69v70h69v-70z" />
    <glyph glyph-name="uni062D.fina" unicode="&#x62d;" horiz-adv-x="524" arabic-form="final" 
d="M419 62l3 4q-25 25 -34 106q-5 48 -8.5 73.5t-10 57.5t-14.5 48t-20.5 31.5t-30.5 21.5t-42 6q-64 0 -129 -36q-11 24 -26 53q76 47 154 47q77 0 118 -42.5t51 -103t14 -121t20 -103t56 -42.5h4v-62h-274q-57 0 -90 -30.5t-33 -81.5q0 -53 41 -77t103 -24q41 0 86 9
q5 -20 13 -60q-41 -12 -107 -12q-97 0 -147.5 43t-50.5 122q0 85 56.5 129t138.5 44h159z" />
    <glyph glyph-name="uni062D.init" unicode="&#x62d;" horiz-adv-x="474" arabic-form="initial" 
d="M0 0q-16 0 -25 9t-9 23t9 22t25 8h377l3 4q-27 28 -34 105q-13 133 -27 172q-26 67 -99 67q-65 0 -129 -36q-11 24 -26 53q76 47 154 47q61 0 100 -26t53.5 -65.5t22.5 -88.5t9 -93t12 -82t33 -53v-66h-449z" />
    <glyph glyph-name="uni062D.medi" unicode="&#x62d;" horiz-adv-x="482" arabic-form="medial" 
d="M482 0h-482q-34 0 -34 31q0 14 9 22.5t25 8.5h377l3 4q-25 25 -34 106q-5 48 -8.5 73.5t-10 57.5t-14.5 48t-20.5 31.5t-30.5 21.5t-42 6q-65 0 -129 -36q-11 24 -26 53q76 47 154 47q56 0 93.5 -22.5t53.5 -59t24.5 -80.5t12 -88t9 -80.5t21.5 -59t45 -22.5h4v-62z" />
    <glyph glyph-name="uni062E.fina" unicode="&#x62e;" horiz-adv-x="524" arabic-form="final" 
d="M419 62l3 4q-25 25 -34 106q-5 48 -8.5 73.5t-10 57.5t-14.5 48t-20.5 31.5t-30.5 21.5t-42 6q-64 0 -129 -36q-11 24 -26 53q76 47 154 47q77 0 118 -42.5t51 -103t14 -121t20 -103t56 -42.5h4v-62h-274q-57 0 -90 -30.5t-33 -81.5q0 -53 41 -77t103 -24q41 0 86 9
q5 -20 13 -60q-41 -12 -107 -12q-97 0 -147.5 43t-50.5 122q0 85 56.5 129t138.5 44h159zM292 555h-69v70h69v-70z" />
    <glyph glyph-name="uni062E.init" unicode="&#x62e;" horiz-adv-x="474" arabic-form="initial" 
d="M0 0q-16 0 -25 9t-9 23t9 22t25 8h377l3 4q-27 28 -34 105q-13 133 -27 172q-26 67 -99 67q-65 0 -129 -36q-11 24 -26 53q76 47 154 47q61 0 100 -26t53.5 -65.5t22.5 -88.5t9 -93t12 -82t33 -53v-66h-449zM272 555h-69v70h69v-70z" />
    <glyph glyph-name="uni062E.medi" unicode="&#x62e;" horiz-adv-x="482" arabic-form="medial" 
d="M482 0h-482q-34 0 -34 31q0 14 9 22.5t25 8.5h377l3 4q-25 25 -34 106q-5 48 -8.5 73.5t-10 57.5t-14.5 48t-20.5 31.5t-30.5 21.5t-42 6q-65 0 -129 -36q-11 24 -26 53q76 47 154 47q56 0 93.5 -22.5t53.5 -59t24.5 -80.5t12 -88t9 -80.5t21.5 -59t45 -22.5h4v-62z
M276 555h-69v70h69v-70z" />
    <glyph glyph-name="uni062F.fina" unicode="&#x62f;" horiz-adv-x="486" arabic-form="final" 
d="M245 410q-77 0 -134 -41l-33 50q71 55 166 55q182 0 182 -184v-228h60v-62h-421v62h302v208q0 73 -28.5 106.5t-93.5 33.5z" />
    <glyph glyph-name="uni0630.fina" unicode="&#x630;" horiz-adv-x="486" arabic-form="final" 
d="M245 410q-77 0 -134 -41l-33 50q71 55 166 55q182 0 182 -184v-228h60v-62h-421v62h302v208q0 73 -28.5 106.5t-93.5 33.5zM272 555h-69v70h69v-70z" />
    <glyph glyph-name="uni0631.fina" unicode="&#x631;" horiz-adv-x="192" arabic-form="final" 
d="M132 387v-325h60v-62h-60v-33q0 -75 -48 -121t-134 -51v62q69 4 95.5 39t26.5 111v380h60z" />
    <glyph glyph-name="uni0632.fina" unicode="&#x632;" horiz-adv-x="192" arabic-form="final" 
d="M132 387v-325h60v-62h-60v-33q0 -75 -48 -121t-134 -51v62q69 4 95.5 39t26.5 111v380h60zM131 470h-69v70h69v-70z" />
    <glyph glyph-name="uni0633.fina" unicode="&#x633;" horiz-adv-x="1011" arabic-form="final" 
d="M776 -7q-47 0 -82.5 22.5t-52.5 61.5h-4q-44 -77 -150 -77h-37v-11q0 -86 -53 -140t-141 -54q-94 0 -142.5 50.5t-48.5 141.5v295h58v-277q0 -146 133 -146q68 0 102 40t34 106v382h58v-325h37q131 0 131 151v174h58v-203q0 -132 100 -132q51 0 76.5 41.5t25.5 104.5
q0 68 -25.5 138t-70.5 118l47 40q45 -51 77 -126.5t33 -166.5q0 -10 -1 -25t-1 -19q0 -44 16.5 -68.5t57.5 -25.5v-63q-81 1 -103 61h-3q-41 -68 -129 -68z" />
    <glyph glyph-name="uni0633.init" unicode="&#x633;" horiz-adv-x="792" arabic-form="initial" 
d="M0 0q-15 0 -24.5 9t-9.5 23q0 12 9.5 21t24.5 9h185v325h58v-325h37q66 0 98.5 40.5t32.5 110.5v174h58v-203q0 -132 100 -132q51 0 76.5 41.5t25.5 104.5q0 68 -25.5 138.5t-70.5 118.5l47 39q110 -123 110 -294q0 -89 -39.5 -148t-123.5 -59q-48 0 -84.5 22.5
t-51.5 62.5h-4q-24 -47 -68 -62.5t-116 -15.5h-245z" />
    <glyph glyph-name="uni0633.medi" unicode="&#x633;" horiz-adv-x="804" arabic-form="medial" 
d="M569 -8q-47 0 -83 22.5t-52 62.5h-4q-44 -77 -150 -77h-280q-16 0 -25.5 8.5t-9.5 22.5t9.5 23t25.5 9h185v324h59v-324h36q131 0 131 150v174h58v-203q0 -132 100 -132q51 0 76.5 41.5t25.5 104.5q0 68 -25.5 138.5t-70.5 118.5l47 39q109 -122 110 -293q0 -19 -2 -33
q-7 -102 74 -105v-63q-81 1 -103 61h-3q-42 -69 -129 -69z" />
    <glyph glyph-name="uni0634.fina" unicode="&#x634;" horiz-adv-x="1011" arabic-form="final" 
d="M776 -7q-47 0 -82.5 22.5t-52.5 61.5h-4q-44 -77 -150 -77h-37v-11q0 -86 -53 -140t-141 -54q-94 0 -142.5 50.5t-48.5 141.5v295h58v-277q0 -146 133 -146q68 0 102 40t34 106v382h58v-325h37q131 0 131 151v174h58v-203q0 -132 100 -132q51 0 76.5 41.5t25.5 104.5
q0 68 -25.5 138t-70.5 118l47 40q45 -51 77 -126.5t33 -166.5q0 -10 -1 -25t-1 -19q0 -44 16.5 -68.5t57.5 -25.5v-63q-81 1 -103 61h-3q-41 -68 -129 -68zM724 555h-68v70h68v-70zM625 555h-68v70h68v-70zM675 659h-69v70h69v-70z" />
    <glyph glyph-name="uni0634.init" unicode="&#x634;" horiz-adv-x="792" arabic-form="initial" 
d="M0 0q-15 0 -24.5 9t-9.5 23q0 12 9.5 21t24.5 9h185v325h58v-325h37q66 0 98.5 40.5t32.5 110.5v174h58v-203q0 -132 100 -132q51 0 76.5 41.5t25.5 104.5q0 68 -25.5 138.5t-70.5 118.5l47 39q110 -123 110 -294q0 -89 -39.5 -148t-123.5 -59q-48 0 -84.5 22.5
t-51.5 62.5h-4q-24 -47 -68 -62.5t-116 -15.5h-245zM522 555h-68v70h68v-70zM423 555h-68v70h68v-70zM473 659h-69v70h69v-70z" />
    <glyph glyph-name="uni0634.medi" unicode="&#x634;" horiz-adv-x="804" arabic-form="medial" 
d="M569 -8q-47 0 -83 22.5t-52 62.5h-4q-44 -77 -150 -77h-280q-16 0 -25.5 8.5t-9.5 22.5t9.5 23t25.5 9h185v324h59v-324h36q131 0 131 150v174h58v-203q0 -132 100 -132q51 0 76.5 41.5t25.5 104.5q0 68 -25.5 138.5t-70.5 118.5l47 39q109 -122 110 -293q0 -19 -2 -33
q-7 -102 74 -105v-63q-81 1 -103 61h-3q-42 -69 -129 -69zM522 555h-68v70h68v-70zM423 555h-68v70h68v-70zM473 659h-69v70h69v-70z" />
    <glyph glyph-name="uni0635.fina" unicode="&#x635;" horiz-adv-x="970" arabic-form="final" 
d="M398 5v437h59v-126h4q45 73 114.5 115t149.5 42q185 0 185 -185v-226h60v-62h-513v-11q0 -85 -55 -139.5t-143 -54.5q-94 0 -144 51t-50 141v295h58v-277q0 -70 34 -108t102 -38q69 0 104 40.5t35 105.5zM457 113v-51h393v206q0 71 -31.5 106t-101.5 35
q-79 0 -140.5 -47.5t-90.5 -114t-29 -134.5z" />
    <glyph glyph-name="uni0635.init" unicode="&#x635;" horiz-adv-x="636" arabic-form="initial" 
d="M123 313h5q46 74 115 117t148 43q185 0 185 -185v-288h-576q-14 0 -24 8.5t-10 21.5t10 22.5t24 9.5h65v380h58v-129zM123 113v-51h394v206q0 71 -31.5 106t-101.5 35q-79 0 -140.5 -47.5t-91 -114t-29.5 -134.5z" />
    <glyph glyph-name="uni0635.medi" unicode="&#x635;" horiz-adv-x="636" arabic-form="medial" 
d="M123 315h5q47 74 115 116t148 42q185 0 185 -185v-226h60v-62h-636q-14 0 -24 8.5t-10 21.5t10 22.5t24 9.5h65v380h58v-127zM123 113v-51h394v206q0 71 -31.5 106t-101.5 35q-79 0 -140.5 -47.5t-91 -114t-29.5 -134.5z" />
    <glyph glyph-name="uni0636.fina" unicode="&#x636;" horiz-adv-x="970" arabic-form="final" 
d="M398 5v437h59v-126h4q45 73 114.5 115t149.5 42q185 0 185 -185v-226h60v-62h-513v-11q0 -85 -55 -139.5t-143 -54.5q-94 0 -144 51t-50 141v295h58v-277q0 -70 34 -108t102 -38q69 0 104 40.5t35 105.5zM457 113v-51h393v206q0 71 -31.5 106t-101.5 35
q-79 0 -140.5 -47.5t-90.5 -114t-29 -134.5zM710 555h-69v70h69v-70z" />
    <glyph glyph-name="uni0636.init" unicode="&#x636;" horiz-adv-x="636" arabic-form="initial" 
d="M123 313h5q46 74 115 117t148 43q185 0 185 -185v-288h-576q-14 0 -24 8.5t-10 21.5t10 22.5t24 9.5h65v380h58v-129zM123 113v-51h394v206q0 71 -31.5 106t-101.5 35q-79 0 -140.5 -47.5t-91 -114t-29.5 -134.5zM353 555h-69v70h69v-70z" />
    <glyph glyph-name="uni0636.medi" unicode="&#x636;" horiz-adv-x="636" arabic-form="medial" 
d="M123 315h5q47 74 115 116t148 42q185 0 185 -185v-226h60v-62h-636q-14 0 -24 8.5t-10 21.5t10 22.5t24 9.5h65v380h58v-127zM123 113v-51h394v206q0 71 -31.5 106t-101.5 35q-79 0 -140.5 -47.5t-91 -114t-29.5 -134.5zM353 555h-69v70h69v-70z" />
    <glyph glyph-name="uni0637.fina" unicode="&#x637;" horiz-adv-x="736" arabic-form="final" 
d="M50 0v63h114v663h59v-401h5q103 148 263 148q185 0 185 -185v-225h60v-63h-686zM223 114v-51h394v205q0 71 -31.5 106.5t-101.5 35.5q-79 0 -140.5 -47.5t-91 -114t-29.5 -134.5z" />
    <glyph glyph-name="uni0637.init" unicode="&#x637;" horiz-adv-x="636" arabic-form="initial" 
d="M123 318h5q47 72 115.5 113.5t147.5 41.5q185 0 185 -185v-288h-576q-14 0 -24 8.5t-10 21.5t10 22.5t24 9.5h65v664h58v-408zM123 113v-51h394v206q0 71 -31.5 106t-101.5 35q-79 0 -140.5 -47.5t-91 -114t-29.5 -134.5z" />
    <glyph glyph-name="uni0637.medi" unicode="&#x637;" horiz-adv-x="636" arabic-form="medial" 
d="M0 0q-14 0 -24 8.5t-10 21.5t10 22.5t24 9.5h65v664h58v-405h5q47 69 116 110.5t147 41.5q185 0 185 -185v-226h60v-62h-636zM123 113v-51h394v206q0 71 -31.5 106t-101.5 35q-79 0 -140.5 -47.5t-91 -114t-29.5 -134.5z" />
    <glyph glyph-name="uni0638.fina" unicode="&#x638;" horiz-adv-x="736" arabic-form="final" 
d="M50 0v63h114v663h59v-401h5q103 148 263 148q185 0 185 -185v-225h60v-63h-686zM223 114v-51h394v205q0 71 -31.5 106.5t-101.5 35.5q-79 0 -140.5 -47.5t-91 -114t-29.5 -134.5zM484 555h-69v70h69v-70z" />
    <glyph glyph-name="uni0638.init" unicode="&#x638;" horiz-adv-x="636" arabic-form="initial" 
d="M123 318h5q47 72 115.5 113.5t147.5 41.5q185 0 185 -185v-288h-576q-14 0 -24 8.5t-10 21.5t10 22.5t24 9.5h65v664h58v-408zM123 113v-51h394v206q0 71 -31.5 106t-101.5 35q-79 0 -140.5 -47.5t-91 -114t-29.5 -134.5zM353 555h-69v70h69v-70z" />
    <glyph glyph-name="uni0638.medi" unicode="&#x638;" horiz-adv-x="636" arabic-form="medial" 
d="M0 0q-14 0 -24 8.5t-10 21.5t10 22.5t24 9.5h65v664h58v-405h5q47 69 116 110.5t147 41.5q185 0 185 -185v-226h60v-62h-636zM123 113v-51h394v206q0 71 -31.5 106t-101.5 35q-79 0 -140.5 -47.5t-91 -114t-29.5 -134.5zM353 555h-69v70h69v-70z" />
    <glyph glyph-name="uni0639.fina" unicode="&#x639;" horiz-adv-x="591" arabic-form="final" 
d="M104 317q0 75 55.5 116t149.5 41q41 0 78.5 -8.5t70.5 -26t52.5 -49.5t19.5 -75q0 -103 -184 -204q40 -21 104 -34.5t128 -13.5h13v-63h-12q-80 0 -162 21.5t-129 50.5q-72 -48 -115.5 -93t-43.5 -95q0 -44 45 -71t118 -27q51 0 89 8l12 -58q-43 -13 -110 -13
q-105 0 -161.5 44t-56.5 114q0 114 171 227q-65 50 -98.5 105.5t-33.5 103.5zM302 411q-63 0 -98.5 -27t-35.5 -71q0 -38 32 -83t94 -88q95 57 134 93.5t39 75.5q0 44 -40.5 72t-124.5 28z" />
    <glyph glyph-name="uni0639.init" unicode="&#x639;" horiz-adv-x="505" arabic-form="initial" 
d="M-34 31q0 14 9.5 23t24.5 9h123l3 4q-61 44 -61 170q0 104 56.5 170.5t156.5 66.5q95 0 167 -67l-42 -49q-52 51 -127 51q-66 0 -106 -45t-40 -132q0 -169 161 -169h140v-63h-431q-15 0 -24.5 8.5t-9.5 22.5z" />
    <glyph glyph-name="uni0639.medi" unicode="&#x639;" horiz-adv-x="557" arabic-form="medial" 
d="M-34 30q0 14 10 23.5t24 9.5h53q100 0 167 29q-77 51 -116 109.5t-39 107.5q0 79 62 122t162 43q53 0 98 -14.5t77.5 -52t32.5 -93.5t-41 -116.5t-107 -102.5q78 -32 181 -32h27v-63h-30q-132 0 -244 55q-102 -55 -249 -55h-34q-14 0 -24 8.5t-10 21.5zM289 122
q78 49 111.5 98.5t33.5 88.5q0 43 -36.5 72t-111.5 29q-76 0 -115 -29t-39 -77q0 -37 41.5 -88.5t115.5 -93.5z" />
    <glyph glyph-name="uni063A.fina" unicode="&#x63a;" horiz-adv-x="591" arabic-form="final" 
d="M104 317q0 75 55.5 116t149.5 41q41 0 78.5 -8.5t70.5 -26t52.5 -49.5t19.5 -75q0 -103 -184 -204q40 -21 104 -34.5t128 -13.5h13v-63h-12q-80 0 -162 21.5t-129 50.5q-72 -48 -115.5 -93t-43.5 -95q0 -44 45 -71t118 -27q51 0 89 8l12 -58q-43 -13 -110 -13
q-105 0 -161.5 44t-56.5 114q0 114 171 227q-65 50 -98.5 105.5t-33.5 103.5zM302 411q-63 0 -98.5 -27t-35.5 -71q0 -38 32 -83t94 -88q95 57 134 93.5t39 75.5q0 44 -40.5 72t-124.5 28zM330 555h-69v70h69v-70z" />
    <glyph glyph-name="uni063A.init" unicode="&#x63a;" horiz-adv-x="505" arabic-form="initial" 
d="M-34 31q0 14 9.5 23t24.5 9h123l3 4q-61 44 -61 170q0 104 56.5 170.5t156.5 66.5q95 0 167 -67l-42 -49q-52 51 -127 51q-66 0 -106 -45t-40 -132q0 -169 161 -169h140v-63h-431q-15 0 -24.5 8.5t-9.5 22.5zM287 555h-69v70h69v-70z" />
    <glyph glyph-name="uni063A.medi" unicode="&#x63a;" horiz-adv-x="557" arabic-form="medial" 
d="M-34 30q0 14 10 23.5t24 9.5h53q100 0 167 29q-77 51 -116 109.5t-39 107.5q0 79 62 122t162 43q53 0 98 -14.5t77.5 -52t32.5 -93.5t-41 -116.5t-107 -102.5q78 -32 181 -32h27v-63h-30q-132 0 -244 55q-102 -55 -249 -55h-34q-14 0 -24 8.5t-10 21.5zM289 122
q78 49 111.5 98.5t33.5 88.5q0 43 -36.5 72t-111.5 29q-76 0 -115 -29t-39 -77q0 -37 41.5 -88.5t115.5 -93.5zM313 555h-69v70h69v-70z" />
    <glyph glyph-name="uni0641.fina" unicode="&#x641;" horiz-adv-x="842" arabic-form="final" 
d="M842 0h-500q-140 0 -208.5 66t-68.5 226v60h62v-75q0 -214 200 -214h130q20 0 46 -2l1 4q-50 21 -86.5 73.5t-36.5 125.5q0 93 52.5 151.5t144.5 58.5q96 0 150 -61t54 -166q0 -59 -20 -107t-48 -73l2 -4h126v-63zM579 413q-64 0 -99.5 -40.5t-35.5 -100.5q0 -82 51 -134
t147 -69q78 52 78 174q0 80 -37.5 125t-103.5 45zM614 555h-69v70h69v-70z" />
    <glyph glyph-name="uni0641.init" unicode="&#x641;" horiz-adv-x="520" arabic-form="initial" 
d="M0 0q-16 0 -25 8.5t-9 22.5t9 22.5t25 8.5h134q48 0 73 -3q0 1 1 3q-68 18 -105.5 70.5t-37.5 134.5q0 87 52.5 147t145.5 60q96 0 146.5 -62t50.5 -172q0 -115 -49 -177.5t-144 -62.5h-267zM398 243q0 169 -135 169q-67 0 -101 -43.5t-34 -104.5q0 -156 209 -181
q61 38 61 160zM295 555h-69v70h69v-70z" />
    <glyph glyph-name="uni0641.medi" unicode="&#x641;" horiz-adv-x="526" arabic-form="medial" 
d="M-35 32q0 13 10 22t25 9h141q20 0 46 -2l1 4q-50 21 -86.5 73.5t-36.5 125.5q0 93 52.5 151.5t144.5 58.5q96 0 150 -61t54 -166q0 -59 -20 -107t-48 -73l2 -4h126v-63h-526q-15 0 -25 9t-10 23zM263 413q-64 0 -99.5 -40.5t-35.5 -100.5q0 -82 51 -134t147 -69
q78 52 78 174q0 80 -37.5 125t-103.5 45zM298 555h-69v70h69v-70z" />
    <glyph glyph-name="uni0642.fina" unicode="&#x642;" horiz-adv-x="702" arabic-form="final" 
d="M702 0h-64q-9 -95 -80 -150.5t-201 -55.5q-67 0 -119 16t-84 42.5t-52.5 65t-28.5 78.5t-8 87v197h58v-162q0 -46 4.5 -81t19 -71t39.5 -59t68.5 -37.5t102.5 -14.5q199 0 218 145h-103q-110 0 -167.5 53.5t-57.5 177.5q0 114 52.5 179t155.5 65q90 0 138.5 -57
t48.5 -160v-196h60v-62zM580 62v175q0 87 -31 130.5t-98 43.5q-72 0 -107.5 -51t-35.5 -130q0 -94 41.5 -131t113.5 -37h117zM526 555h-68v70h68v-70zM427 555h-68v70h68v-70z" />
    <glyph glyph-name="uni0642.init" unicode="&#x642;" horiz-adv-x="520" arabic-form="initial" 
d="M0 0q-16 0 -25 8.5t-9 22.5t9 22.5t25 8.5h134q48 0 73 -3q0 1 1 3q-68 18 -105.5 70.5t-37.5 134.5q0 87 52.5 147t145.5 60q96 0 146.5 -62t50.5 -172q0 -115 -49 -177.5t-144 -62.5h-267zM398 243q0 169 -135 169q-67 0 -101 -43.5t-34 -104.5q0 -156 209 -181
q61 38 61 160zM344 555h-68v70h68v-70zM245 555h-68v70h68v-70z" />
    <glyph glyph-name="uni0642.medi" unicode="&#x642;" horiz-adv-x="526" arabic-form="medial" 
d="M-35 32q0 13 10 22t25 9h141q20 0 46 -2l1 4q-50 21 -86.5 73.5t-36.5 125.5q0 93 52.5 151.5t144.5 58.5q96 0 150 -61t54 -166q0 -59 -20 -107t-48 -73l2 -4h126v-63h-526q-15 0 -25 9t-10 23zM263 413q-64 0 -99.5 -40.5t-35.5 -100.5q0 -82 51 -134t147 -69
q78 52 78 174q0 80 -37.5 125t-103.5 45zM347 555h-68v70h68v-70zM248 555h-68v70h68v-70z" />
    <glyph glyph-name="uni0643.fina" unicode="&#x643;" horiz-adv-x="737" arabic-form="final" 
d="M603 726h59v-556q0 -104 75 -107v-63q-83 0 -105 62q-22 -34 -53 -48t-86 -14h-159q-144 0 -206.5 65.5t-62.5 184.5v102h59v-75q0 -106 44.5 -160t158.5 -54h166q67 0 88.5 31.5t21.5 96.5v535zM398 472q42 0 71 -20l-17 -34q-24 14 -56 14q-56 0 -56 -47q0 -44 57 -44
h72v-40h-199v40h42l1 3q-17 14 -17 44q0 33 25 58.5t77 25.5z" />
    <glyph glyph-name="uni0643.init" unicode="&#x643;" horiz-adv-x="467" arabic-form="initial" 
d="M-34 31q0 14 9 23t25 9h350v91q0 53 -14 87.5t-54 60.5l-217 139v50l358 235l31 -45l-324 -212l190 -122q57 -37 73 -79.5t16 -104.5v-163h-409q-34 0 -34 31z" />
    <glyph glyph-name="uni0643.medi" unicode="&#x643;" horiz-adv-x="469" arabic-form="medial" 
d="M0 0q-16 0 -25 8.5t-9 22.5t9 22.5t25 8.5h350v92q0 53 -14 87.5t-54 60.5q-42 27 -120 77t-97 62v50l358 235l31 -45q-216 -142 -324 -212l190 -123q57 -37 73 -79.5t16 -104.5v-100h60v-62h-469z" />
    <glyph glyph-name="uni0644.fina" unicode="&#x644;" horiz-adv-x="515" arabic-form="final" 
d="M455 726v-664h60v-62h-60v-13q0 -80 -54 -136t-142 -56q-94 0 -144 51t-50 141v295h58v-277q0 -70 34 -108t102 -38t103 41t35 109v717h58z" />
    <glyph glyph-name="uni0644.init" unicode="&#x644;" horiz-adv-x="197" arabic-form="initial" 
d="M-34 30q0 14 10 23.5t24 9.5q48 0 63 28t15 89v546h59v-545q0 -88 -30.5 -134.5t-106.5 -46.5q-14 0 -24 8.5t-10 21.5z" />
    <glyph glyph-name="uni0644.medi" unicode="&#x644;" horiz-adv-x="213" arabic-form="medial" 
d="M111 58q-37 -58 -111 -58q-15 0 -24.5 8.5t-9.5 21.5q0 14 9.5 23.5t24.5 9.5q44 0 62 30t18 88v545h58v-555q0 -107 75 -108v-63q-32 0 -61 14t-41 44z" />
    <glyph glyph-name="uni0645.fina" unicode="&#x645;" horiz-adv-x="719" arabic-form="final" 
d="M424 0h-190q-66 0 -88.5 -26t-22.5 -108v-138h-58v173q0 82 40 121.5t123 39.5h22v193q0 103 53 161.5t146 58.5q197 0 197 -243q0 -12 -1.5 -36t-1.5 -35q0 -97 76 -98v-63q-89 0 -115 72q-50 -72 -180 -72zM309 62h126q71 0 110 37.5t39 132.5q0 180 -133 180
q-142 0 -142 -175v-175z" />
    <glyph glyph-name="uni0645.init" unicode="&#x645;" horiz-adv-x="539" arabic-form="initial" 
d="M283 412q-140 0 -140 -177q0 -180 138 -180q66 0 101.5 43t35.5 145q0 79 -34 124t-101 45zM285 475q194 0 194 -243q0 -238 -202 -238q-119 0 -163 79q-29 -73 -114 -73q-14 0 -24 8.5t-10 21.5q0 14 10 23.5t24 9.5q48 0 63.5 32.5t15.5 91.5v41q0 122 53.5 184.5
t152.5 62.5z" />
    <glyph glyph-name="uni0645.medi" unicode="&#x645;" horiz-adv-x="553" arabic-form="medial" 
d="M285 475q98 0 146 -64t48 -179q0 -12 -1.5 -36t-1.5 -35q0 -97 77 -98v-63q-90 0 -113 69q-49 -75 -163 -75q-119 0 -163 79q-29 -73 -114 -73q-14 0 -24 8.5t-10 21.5q0 14 10 23.5t24 9.5q25 0 42 10t24.5 29.5t10 38.5t2.5 46v41q0 122 53.5 184.5t152.5 62.5z
M283 412q-140 0 -140 -177q0 -93 33 -136.5t105 -43.5q69 0 103 42.5t34 145.5q0 79 -33.5 124t-101.5 45z" />
    <glyph glyph-name="uni0646.fina" unicode="&#x646;" horiz-adv-x="515" arabic-form="final" 
d="M455 386v-324h60v-62h-60q0 -87 -52.5 -146t-143.5 -59q-94 0 -144 51t-50 141v295h58v-277q0 -70 34 -108t102 -38t103 41t35 109v377h58zM291 450h-69v70h69v-70z" />
    <glyph glyph-name="uni0646.init" unicode="&#x646;" horiz-adv-x="197" arabic-form="initial" 
d="M-34 30q0 14 10 23.5t24 9.5q48 0 63 28t15 89v272h59v-271q0 -88 -30.5 -134.5t-106.5 -46.5q-14 0 -24 8.5t-10 21.5zM133 530h-69v70h69v-70z" />
    <glyph glyph-name="uni0646.medi" unicode="&#x646;" horiz-adv-x="213" arabic-form="medial" 
d="M111 58q-37 -58 -111 -58q-15 0 -24.5 8.5t-9.5 21.5q0 14 9.5 23.5t24.5 9.5q44 0 62 30t18 88v206h58v-216q0 -107 75 -108v-63q-32 0 -61 14t-41 44zM141 470h-69v70h69v-70z" />
    <glyph glyph-name="uniFEE9" unicode="&#x647;" horiz-adv-x="533" arabic-form="isolated" 
d="M274 474q75 0 137 -73.5t62 -194.5q0 -100 -54 -156.5t-150 -56.5q-104 0 -154 52t-50 162q0 116 62 191.5t147 75.5zM272 413q-60 0 -102 -59.5t-42 -145.5q0 -81 34.5 -116.5t108.5 -35.5t107.5 42.5t33.5 111.5q0 86 -44.5 144.5t-95.5 58.5z" />
    <glyph glyph-name="uni0647.fina" unicode="&#x647;" horiz-adv-x="530" arabic-form="final" 
d="M397 475h58v-276q0 -70 15.5 -102.5t59.5 -33.5v-63q-54 0 -85.5 28t-39.5 77q-60 -71 -164 -71q-84 0 -130 41.5t-46 112.5q0 37 13.5 72t47 72t103 63.5t168.5 34.5v45zM127 194q0 -44 31 -72.5t90 -28.5q36 0 67.5 11t56.5 42t25 78v147q-77 -6 -133 -24.5t-84 -45.5
t-40.5 -53t-12.5 -54z" />
    <glyph glyph-name="uni0647.init" unicode="&#x647;" horiz-adv-x="668" arabic-form="initial" 
d="M389 501q219 0 219 -264q0 -120 -60.5 -178.5t-150.5 -58.5h-397q-14 0 -24 8.5t-10 21.5t10 22.5t24 9.5h108q40 0 61 -3l2 3q-47 17 -76.5 61t-29.5 109q0 77 45.5 128.5t127.5 52.5l-18 38q32 22 80 36t89 14zM349 219q0 62 -28 100.5t-87 38.5q-55 0 -83.5 -38
t-28.5 -90q0 -64 42 -105.5t119 -53.5q32 20 49 62.5t17 85.5zM545 240q0 113 -42.5 156.5t-113.5 43.5q-68 0 -127 -28q70 -7 108 -58t38 -133q0 -95 -53 -153v-6h35q155 0 155 178z" />
    <glyph glyph-name="uni0647.medi" unicode="&#x647;" horiz-adv-x="677" arabic-form="medial" 
d="M546 240q0 113 -43 156.5t-114 43.5q-68 0 -127 -28q70 -7 108 -58t38 -133q0 -96 -53 -154v-5h35q156 0 156 178zM349 219q0 62 -28 100.5t-87 38.5q-55 0 -83.5 -38t-28.5 -90q0 -65 42 -106.5t119 -53.5q32 20 49 63t17 86zM399 0h-399q-16 0 -25 8.5t-9 22.5t9.5 23
t24.5 9h108q33 0 61 -4l2 3q-47 16 -76.5 61t-29.5 109q0 76 46 128t127 53l-18 38q32 22 79.5 36t88.5 14q220 0 220 -265q0 -46 -9 -92q3 -36 23 -58t55 -23v-63q-90 0 -114 73q-58 -73 -164 -73z" />
    <glyph glyph-name="uni0648.fina" unicode="&#x648;" horiz-adv-x="520" arabic-form="final" 
d="M520 62v-62h-60q-3 -102 -61.5 -153.5t-152.5 -51.5h-132v63h126q68 0 112.5 36t44.5 106h-108q-110 0 -167 53.5t-57 177.5q0 113 51.5 178.5t152.5 65.5q93 0 142 -56.5t49 -160.5v-196h60zM279 62h119v175q0 86 -31 130t-102 44q-69 0 -103.5 -47t-34.5 -134
q0 -94 40.5 -131t111.5 -37z" />
    <glyph glyph-name="uni0649.fina" unicode="&#x649;" horiz-adv-x="836" arabic-form="final" 
d="M479 62v243q0 83 45 126.5t123 43.5h129v-413h60v-62h-119v411h-74q-57 0 -81 -31.5t-24 -94.5v-285h-204q-144 0 -206.5 65t-62.5 185v102h58v-75q0 -106 45 -160.5t159 -54.5h152z" />
    <glyph glyph-name="uni064A.fina" unicode="&#x64a;" horiz-adv-x="836" arabic-form="final" 
d="M479 62v243q0 83 45 126.5t123 43.5h129v-413h60v-62h-119v411h-74q-57 0 -81 -31.5t-24 -94.5v-285h-204q-144 0 -206.5 65t-62.5 185v102h58v-75q0 -106 45 -160.5t159 -54.5h152zM453 -151h-68v70h68v-70zM354 -151h-68v70h68v-70z" />
    <glyph glyph-name="uni064A.init" unicode="&#x64a;" horiz-adv-x="197" arabic-form="initial" 
d="M-34 30q0 14 10 23.5t24 9.5q48 0 63 28t15 89v272h59v-271q0 -88 -30.5 -134.5t-106.5 -46.5q-14 0 -24 8.5t-10 21.5zM182 -151h-68v70h68v-70zM83 -151h-68v70h68v-70z" />
    <glyph glyph-name="uni064A.medi" unicode="&#x64a;" horiz-adv-x="213" arabic-form="medial" 
d="M111 58q-37 -58 -111 -58q-15 0 -24.5 8.5t-9.5 21.5q0 14 9.5 23.5t24.5 9.5q44 0 62 30t18 88v206h58v-216q0 -107 75 -108v-63q-32 0 -61 14t-41 44zM190 -151h-68v70h68v-70zM91 -151h-68v70h68v-70z" />
    <glyph glyph-name=".notdef" horiz-adv-x="436" 
d="M0 0v700h436v-700h-436zM218 387l150 272h-300zM243 350l153 -278v557zM68 41h300l-150 272zM40 627v-554l153 277z" />
    <glyph glyph-name=".null" horiz-adv-x="0" 
 />
    <glyph glyph-name="nonmarkingreturn" horiz-adv-x="333" 
 />
    <glyph glyph-name="space" unicode=" " horiz-adv-x="223" 
 />
    <glyph glyph-name="space" unicode="&#xa0;" horiz-adv-x="223" 
 />
    <glyph glyph-name="exclam" unicode="!" horiz-adv-x="227" 
d="M145 696l-9 -514h-46l-8 514h63zM151 0h-73v79h73v-79z" />
    <glyph glyph-name="quotedbl" unicode="&#x22;" horiz-adv-x="276" 
d="M217 503h-49v193h49v-193zM110 503h-49v193h49v-193z" />
    <glyph glyph-name="numbersign" unicode="#" horiz-adv-x="484" 
d="M12 220v44h101q0 4 23 170h-95v45h102q1 14 15 112.5t14 102.5h47l-29 -215h128q3 19 16 109t14 106h48l-30 -215h101v-45h-107l-23 -170h101v-44h-107l-29 -220h-49l30 220h-129q-20 -160 -30 -220h-48l31 220h-95zM184 434l-24 -170h129q23 166 23 170h-128z" />
    <glyph glyph-name="dollar" unicode="$" horiz-adv-x="484" 
d="M264 310v-255q56 5 90.5 38.5t34.5 89.5q0 17 -4 31.5t-8 24.5t-15 20l-16.5 15t-20.5 12t-19.5 9t-22.5 8t-19 7zM224 387v247q-51 -5 -84 -39.5t-33 -93.5q0 -83 117 -114zM264 -118h-40v112q-117 7 -196 75q1 1 15.5 21.5t22.5 29.5q72 -59 158 -66v265
q-84 21 -133.5 63t-49.5 121t50 132t133 59v78h40v-79q93 -6 161 -52q-3 -4 -32 -54q-61 39 -129 46v-257q48 -12 77.5 -24t58 -33t42 -54.5t13.5 -81.5q0 -82 -52 -133t-139 -56v-112z" />
    <glyph glyph-name="percent" unicode="%" horiz-adv-x="767" 
d="M711 114q0 -54 -37.5 -86.5t-90.5 -32.5q-52 0 -89.5 32.5t-37.5 86.5v189q0 53 37.5 85t89.5 32q53 0 90.5 -32t37.5 -85v-189zM659 118v181q0 33 -21 53t-55 20t-55 -20t-21 -53v-181q0 -34 21 -54t55 -20q35 0 55.5 20t20.5 54zM311 394q0 -55 -37.5 -87t-90.5 -32
q-52 0 -89.5 32t-37.5 87v188q0 53 37.5 85.5t89.5 32.5q53 0 90.5 -32.5t37.5 -85.5v-188zM259 397v181q0 34 -20.5 53.5t-55.5 19.5q-34 0 -55 -20t-21 -53v-181q0 -33 21 -53t55 -20q35 0 55.5 19.5t20.5 53.5zM636 718l-425 -739h-48l424 739h49z" />
    <glyph glyph-name="ampersand" unicode="&#x26;" horiz-adv-x="631" 
d="M221 387q-31 41 -44 60t-26 48.5t-13 56.5q0 65 43.5 109t126.5 44q93 0 157 -57l-40 -47q-33 26 -60 35.5t-65 9.5q-51 0 -75 -27.5t-24 -65.5q0 -17 19 -52t53.5 -82.5t64.5 -87t69 -89t51 -65.5q32 55 44 130q20 -2 60 -8q-18 -100 -65 -172l100 -127h-77l-64 81
q-84 -87 -192 -87q-90 0 -140.5 47.5t-50.5 122.5q0 126 148 223zM255 342q-119 -75 -119 -173q0 -53 36 -85t94 -32q42 0 83 21.5t70 54.5q-134 176 -164 214z" />
    <glyph glyph-name="quotesingle" unicode="'" horiz-adv-x="215" 
d="M130 503h-48v193h48v-193z" />
    <glyph glyph-name="parenleft" unicode="(" horiz-adv-x="276" 
d="M234 -120q-77 87 -126.5 197.5t-49.5 225.5t48 225.5t125 196.5l34 -21q-63 -86 -99.5 -191t-36.5 -205q0 -107 36.5 -212.5t98.5 -191.5z" />
    <glyph glyph-name="parenright" unicode=")" horiz-adv-x="276" 
d="M55 -120l-32 23q62 86 99 191.5t37 212.5q0 101 -36.5 205.5t-99.5 190.5l34 21q77 -86 125 -196.5t48 -225.5t-49.5 -225.5t-125.5 -196.5z" />
    <glyph glyph-name="asterisk" unicode="*" horiz-adv-x="352" 
d="M210 537l80 -93q-41 -32 -46 -35l-66 106q-47 -74 -65 -107l-46 36l78 93q-12 3 -58 16.5t-58 16.5q1 3 16 54l114 -48l-9 122h56l-9 -122q11 5 56.5 23.5t58.5 24.5l16 -55z" />
    <glyph glyph-name="plus" unicode="+" horiz-adv-x="484" 
d="M455 262h-188v-193h-51v193h-188v51h188v191h51v-191h188v-51z" />
    <glyph glyph-name="comma" unicode="," horiz-adv-x="213" 
d="M94 -106h-40l29 106h-22v88h82v-86z" />
    <glyph glyph-name="hyphen" unicode="-" horiz-adv-x="381" 
d="M329 224h-277v59h277v-59z" />
    <glyph glyph-name="period" unicode="." horiz-adv-x="205" 
d="M144 0h-81v88h81v-88z" />
    <glyph glyph-name="slash" unicode="/" horiz-adv-x="441" 
d="M386 722l-309 -756h-51l308 756h52z" />
    <glyph glyph-name="zero" unicode="0" horiz-adv-x="484" 
d="M431 185q0 -88 -55.5 -139.5t-133.5 -51.5t-133.5 51.5t-55.5 139.5v326q0 88 55.5 139.5t133.5 51.5t133.5 -51.5t55.5 -139.5v-326zM368 191v314q0 61 -34.5 98t-91.5 37q-58 0 -92.5 -37t-34.5 -98v-314q0 -62 34.5 -99t92.5 -37q56 0 91 37.5t35 98.5z" />
    <glyph glyph-name="one" unicode="1" horiz-adv-x="484" 
d="M287 696v-696h-64v629l-96 -67v68l95 66h65z" />
    <glyph glyph-name="two" unicode="2" horiz-adv-x="484" 
d="M428 0h-380v63l279 358q39 50 39 105q0 48 -32 81t-89 33q-46 0 -81 -30t-45 -78l-64 9q13 72 67 115.5t124 43.5q84 0 136 -46.5t52 -125.5q0 -74 -49 -135l-259 -331h302v-62z" />
    <glyph glyph-name="three" unicode="3" horiz-adv-x="484" 
d="M438 203q0 -93 -58.5 -151t-149.5 -58q-66 0 -116.5 32.5t-65.5 104.5l62 9q11 -42 43.5 -65t78.5 -23q61 0 101 41.5t40 106.5q0 63 -36.5 99.5t-92.5 36.5h-48v57h39q56 0 92 34t36 88q0 56 -36 92t-91 36q-39 0 -73.5 -24.5t-46.5 -67.5l-62 9q15 63 65.5 102.5
t117.5 39.5q94 0 142.5 -53t48.5 -132q0 -43 -22.5 -84t-72.5 -67q55 -25 80 -70t25 -93z" />
    <glyph glyph-name="four" unicode="4" horiz-adv-x="484" 
d="M459 109h-60v-109h-63v109h-307v61l243 526h71l-247 -527h240v210h63v-210h60v-60z" />
    <glyph glyph-name="five" unicode="5" horiz-adv-x="484" 
d="M49 130l61 11q11 -45 44 -68t81 -23q72 0 104 49t32 118v36q0 154 -130 154q-32 0 -63.5 -18.5t-50.5 -47.5h-61v355h352v-60h-293v-222q54 51 133 51q86 0 130.5 -54t44.5 -144v-44q0 -103 -48.5 -165.5t-150.5 -62.5q-153 0 -185 135z" />
    <glyph glyph-name="six" unicode="6" horiz-adv-x="484" 
d="M437 209q0 -108 -58 -161.5t-141 -53.5q-75 0 -130 54t-55 150q0 64 26 113l193 385h70l-160 -318l2 -1q33 21 77 21q75 0 125.5 -53.5t50.5 -135.5zM372 200q0 66 -36.5 104.5t-91.5 38.5q-56 0 -92.5 -38.5t-36.5 -104.5q0 -68 35 -108.5t94 -40.5q55 0 91.5 40.5
t36.5 108.5z" />
    <glyph glyph-name="seven" unicode="7" horiz-adv-x="484" 
d="M433 631l-247 -631h-71l249 634h-249v-107h-62v169h380v-65z" />
    <glyph glyph-name="eight" unicode="8" horiz-adv-x="484" 
d="M448 193q0 -87 -59.5 -143t-145.5 -56t-145 56t-59 143q0 50 28.5 97.5t78.5 68.5q-49 21 -71.5 62.5t-22.5 88.5q0 80 55 135.5t136 55.5q86 0 138.5 -54.5t52.5 -136.5q0 -48 -23.5 -88t-69.5 -63l1 -1q52 -18 79 -65t27 -100zM243 332q-57 0 -99.5 -39t-42.5 -99
q0 -59 42.5 -100.5t99.5 -41.5q58 0 100.5 41.5t42.5 100.5q0 60 -42.5 99t-100.5 39zM243 643q-51 0 -89.5 -35.5t-38.5 -95.5t38 -93.5t90 -33.5t90.5 33t38.5 94q0 60 -38.5 95.5t-90.5 35.5z" />
    <glyph glyph-name="nine" unicode="9" horiz-adv-x="484" 
d="M52 488q0 108 57 160.5t142 52.5q76 0 131.5 -53.5t55.5 -149.5q0 -64 -25 -114l-197 -385h-70l166 322l-3 1q-31 -21 -79 -21q-77 0 -127.5 51.5t-50.5 135.5zM114 496q0 -66 37.5 -104.5t93.5 -38.5q55 0 91.5 38.5t36.5 104.5q0 67 -35 107.5t-93 40.5
q-56 0 -93.5 -40.5t-37.5 -107.5z" />
    <glyph glyph-name="colon" unicode=":" horiz-adv-x="206" 
d="M142 0h-81v88h81v-88zM142 299h-81v89h81v-89z" />
    <glyph glyph-name="semicolon" unicode=";" horiz-adv-x="206" 
d="M94 -106h-40l29 106h-22v88h82v-92zM143 299h-81v88h81v-88z" />
    <glyph glyph-name="less" unicode="&#x3c;" horiz-adv-x="484" 
d="M441 128v-57l-404 193v48l404 192v-56l-341 -160q12 -6 164.5 -78t176.5 -82z" />
    <glyph glyph-name="equal" unicode="=" horiz-adv-x="484" 
d="M455 349h-427v52h427v-52zM455 164h-427v53h427v-53z" />
    <glyph glyph-name="greater" unicode="&#x3e;" horiz-adv-x="484" 
d="M38 71v57q24 10 175.5 82t164.5 78l-339 160v56l403 -192v-48z" />
    <glyph glyph-name="question" unicode="?" horiz-adv-x="471" 
d="M102 508l-65 12q21 88 78 134t131 46q84 0 136 -50t52 -128q0 -28 -11 -57t-23 -46t-32 -42q-9 -11 -30 -34t-32 -36t-20.5 -34.5t-9.5 -42.5v-58h-66v60q0 57 43 108q3 4 41.5 45.5t55 70t16.5 59.5q0 27 -10 53t-40.5 48t-77.5 22q-57 0 -93.5 -43.5t-42.5 -86.5z
M279 0h-73v79h73v-79z" />
    <glyph glyph-name="at" unicode="@" horiz-adv-x="801" 
d="M528 415v-165q0 -63 57 -63q54 0 87 49t33 150q0 126 -86 199.5t-201 73.5q-141 0 -233 -92t-92 -231q0 -150 91 -239.5t239 -89.5q117 0 204 42l17 -45q-114 -43 -216 -43q-170 0 -278.5 102t-108.5 273q0 158 104.5 263.5t267.5 105.5q147 0 246 -88.5t99 -230.5
q0 -124 -49.5 -184.5t-127.5 -60.5q-24 0 -54.5 14.5t-37.5 43.5h-4q-13 -26 -47.5 -39.5t-72.5 -13.5q-56 0 -95 27.5t-39 81.5q0 47 33 78t91 31h124v48q0 75 -97 75q-55 0 -98 -38l-33 33q56 51 134 51q69 0 106 -26t37 -92zM278 259q0 -31 24 -49.5t68 -18.5
q48 0 78.5 18.5t30.5 56.5v57h-115q-38 0 -62 -16.5t-24 -47.5z" />
    <glyph glyph-name="A" unicode="A" horiz-adv-x="592" 
d="M509 0q-15 40 -58 165h-312q-9 -24 -18.5 -52t-21.5 -61.5t-18 -51.5h-71q84 232 254 696h62l255 -696h-72zM296 609h-3q-22 -70 -61 -178q-15 -40 -40.5 -112.5t-33.5 -95.5h273l-78 225z" />
    <glyph glyph-name="B" unicode="B" horiz-adv-x="592" 
d="M553 190q0 -85 -55 -137.5t-134 -52.5h-287v696h259q96 0 148.5 -50t52.5 -130q0 -113 -111 -154v-3q62 -13 94.5 -62.5t32.5 -106.5zM326 637h-181v-251h181q67 0 105 35t38 91q0 55 -37.5 90t-105.5 35zM341 327h-196v-265h196q70 0 106.5 37.5t36.5 95.5q0 56 -37 94
t-106 38z" />
    <glyph glyph-name="C" unicode="C" horiz-adv-x="536" 
d="M457 168l63 -30q-27 -68 -85 -106t-139 -38q-121 0 -182.5 72t-61.5 183v199q0 109 62 181t182 72q79 0 136.5 -37t85.5 -102l-63 -29q-19 47 -60.5 75.5t-97.5 28.5q-89 0 -133.5 -55t-44.5 -137v-193q0 -83 44 -139t134 -56q57 0 98 29.5t62 81.5z" />
    <glyph glyph-name="D" unicode="D" horiz-adv-x="612" 
d="M77 696h227q169 0 230 -128q26 -54 26 -208q0 -165 -24 -224q-59 -136 -248 -136h-211v696zM492 277v137q0 118 -50.5 169t-143.5 51h-153v-572h153q194 0 194 215z" />
    <glyph glyph-name="E" unicode="E" horiz-adv-x="536" 
d="M509 0h-432v696h432v-62h-364v-252h310v-60h-310v-260h364v-62z" />
    <glyph glyph-name="F" unicode="F" horiz-adv-x="516" 
d="M509 634h-363v-255h309v-60h-309v-319h-69v696h432v-62z" />
    <glyph glyph-name="G" unicode="G" horiz-adv-x="592" 
d="M296 53q76 0 125.5 54t49.5 128v67h-152v61h220v-124q0 -107 -67.5 -176.5t-176.5 -69.5q-119 0 -181.5 73t-62.5 183v199q0 108 63.5 180.5t180.5 72.5q79 0 136.5 -37t84.5 -102q-1 -1 -31 -14.5t-31 -14.5q-20 47 -61.5 75.5t-96.5 28.5q-85 0 -131.5 -55.5
t-46.5 -136.5v-197q0 -81 46.5 -138t131.5 -57z" />
    <glyph glyph-name="H" unicode="H" horiz-adv-x="631" 
d="M553 0h-68v322h-340v-322h-68v696h68v-314h340v314h68v-696z" />
    <glyph glyph-name="I" unicode="I" horiz-adv-x="227" 
d="M147 0h-68v696h68v-696z" />
    <glyph glyph-name="J" unicode="J" horiz-adv-x="458" 
d="M389 696v-491q0 -111 -59.5 -161t-154.5 -50q-92 0 -153 64l49 45q52 -45 100 -45q150 0 150 161v477h68z" />
    <glyph glyph-name="K" unicode="K" horiz-adv-x="612" 
d="M597 0h-78q-19 32 -111 186t-111 187q-116 -140 -152 -185v-188h-68v696h68v-410h2l150 184l187 226h77q-9 -11 -62 -75.5t-98 -119.5t-61 -75q26 -45 257 -426z" />
    <glyph glyph-name="L" unicode="L" horiz-adv-x="536" 
d="M509 0h-432v696h68v-634h364v-62z" />
    <glyph glyph-name="M" unicode="M" horiz-adv-x="745" 
d="M678 0h-68v543l-2 -1l-78 -175q-34 -69 -123 -261h-59l-124 266q-8 18 -39 85.5t-39 85.5l-2 -1v-542h-67v696h68q149 -322 151 -326q8 -17 41 -91t41 -90h2l81 180q13 27 75.5 163.5t75.5 163.5h66v-696z" />
    <glyph glyph-name="N" unicode="N" horiz-adv-x="668" 
d="M525 0l-258 392l-120 188q-1 0 -1 -0.5t-1 -0.5v-579h-67v696h67l252 -384l126 -199l2 2v581h66v-696h-66z" />
    <glyph glyph-name="O" unicode="O" horiz-adv-x="583" 
d="M292 701q121 0 182 -69t61 -184v-199q0 -117 -65.5 -186t-177.5 -69q-119 0 -181.5 72.5t-62.5 182.5v199q0 108 63.5 180.5t180.5 72.5zM293 637q-88 0 -133 -55t-45 -136v-195q0 -83 44.5 -139t133.5 -56q83 0 128 54.5t45 142.5v193q0 84 -44.5 137.5t-128.5 53.5z
" />
    <glyph glyph-name="P" unicode="P" horiz-adv-x="564" 
d="M553 489q0 -77 -57 -138.5t-154 -61.5h-196v-289h-68v696h252q94 0 158.5 -51.5t64.5 -155.5zM481 492q0 69 -42 105.5t-108 36.5h-185v-282h189q71 0 108.5 41.5t37.5 98.5z" />
    <glyph glyph-name="Q" unicode="Q" horiz-adv-x="592" 
d="M292 701q111 0 177 -70.5t66 -182.5v-199q0 -78 -31 -138l95 -76l-37 -46q-18 13 -93 74q-64 -69 -177 -69q-118 0 -180.5 72.5t-62.5 182.5v199q0 108 63 180.5t180 72.5zM293 636q-85 0 -131 -55.5t-46 -135.5v-193q0 -81 46 -137.5t131 -56.5q74 0 120 49q-4 3 -25 20
t-45 36.5t-29 23.5l39 45l93 -76q21 47 21 98v191q0 82 -47 136.5t-127 54.5z" />
    <glyph glyph-name="R" unicode="R" horiz-adv-x="592" 
d="M543 0h-77l-141 314h-179v-314h-68v696h277q87 0 143.5 -51t56.5 -134q0 -73 -43.5 -123.5t-116.5 -67.5zM485 511q0 63 -40.5 94.5t-103.5 31.5h-195v-263h191q65 0 106.5 36t41.5 101z" />
    <glyph glyph-name="S" unicode="S" horiz-adv-x="537" 
d="M511 191q0 -90 -67 -143.5t-178 -53.5q-149 0 -255 85l43 55q90 -76 215 -76q77 0 124.5 33.5t47.5 100.5q0 27 -10.5 48t-25 34t-40 23.5t-46 16t-52.5 11.5q-41 8 -64.5 13.5t-57 19.5t-51 31.5t-31 48.5t-13.5 72q0 89 63 141t161 52q127 0 212 -61l-38 -57
q-84 52 -175 52q-71 0 -113.5 -32.5t-42.5 -94.5q0 -25 10.5 -44.5t24 -31t43 -22t50.5 -15.5t63 -13q36 -7 59 -13.5t53.5 -21t48 -33.5t30 -51t12.5 -74z" />
    <glyph glyph-name="T" unicode="T" horiz-adv-x="482" 
d="M478 637h-202v-637h-68v637h-204v59h474v-59z" />
    <glyph glyph-name="U" unicode="U" horiz-adv-x="612" 
d="M481 696h69v-454q0 -113 -67.5 -180.5t-176.5 -67.5q-113 0 -178 71.5t-65 180.5v450h67v-441q0 -83 47.5 -140t129.5 -57q79 0 126.5 51.5t47.5 141.5v445z" />
    <glyph glyph-name="V" unicode="V" horiz-adv-x="536" 
d="M266 111l4 1q13 47 40 132.5t33 105.5l109 346h73l-230 -696h-57l-230 696h72q5 -17 30.5 -97.5t49 -152.5t31.5 -97z" />
    <glyph glyph-name="W" unicode="W" horiz-adv-x="816" 
d="M798 696l-174 -696h-59l-159 576h-1q-29 -110 -57 -211l-99 -365h-61l-172 696h72q14 -63 42 -183t41 -177l49 -213l1 -1h2l56 213q83 303 100 361h56q94 -339 102 -365l57 -209h2q8 33 23 103.5t22 103.5l84 367h73z" />
    <glyph glyph-name="X" unicode="X" horiz-adv-x="512" 
d="M506 0h-75l-175 303l-176 -303h-75l213 357l-199 339h76l161 -285l161 285h75l-199 -339z" />
    <glyph glyph-name="Y" unicode="Y" horiz-adv-x="492" 
d="M277 287v-287h-64v287l-209 409h71l107 -216l63 -132q8 15 69 143q91 182 102 205h69q-34 -67 -208 -409z" />
    <glyph glyph-name="Z" unicode="Z" horiz-adv-x="497" 
d="M464 0h-431v60l354 577h-340v59h417v-55l-355 -579h355v-62z" />
    <glyph glyph-name="bracketleft" unicode="[" horiz-adv-x="248" 
d="M230 -107h-156v805h156v-46h-96v-714h96v-45z" />
    <glyph glyph-name="backslash" unicode="\" horiz-adv-x="305" 
d="M249 -42l-251 767h50l252 -767h-51z" />
    <glyph glyph-name="bracketright" unicode="]" horiz-adv-x="248" 
d="M186 -107h-155v45h95v714h-95v46h155v-805z" />
    <glyph glyph-name="asciicircum" unicode="^" horiz-adv-x="484" 
d="M91 330h-57l187 364h48l186 -363h-56l-155 305q-7 -16 -76 -151t-77 -155z" />
    <glyph glyph-name="underscore" unicode="_" horiz-adv-x="497" 
d="M497 -118h-497v49h497v-49z" />
    <glyph glyph-name="grave" unicode="`" horiz-adv-x="487" 
d="M340 573l-41 -16l-99 160l65 22z" />
    <glyph glyph-name="a" unicode="a" horiz-adv-x="483" 
d="M368 48l-1 1q-35 -55 -152 -55q-79 0 -127 38.5t-48 105.5q0 62 41.5 102t117.5 40h169v64q0 98 -129 98q-83 0 -128 -46l-40 43q59 62 167 62q193 0 193 -157v-344h-63v48zM368 228h-154q-54 0 -84 -22.5t-30 -64.5q0 -43 32.5 -67t90.5 -24q59 0 102 22.5t43 76.5v79z
" />
    <glyph glyph-name="b" unicode="b" horiz-adv-x="481" 
d="M443 254q0 -260 -185 -260q-93 0 -140 67h-2v-61h-63v725h63v-300h2q51 76 144 76q51 0 88 -21t56 -57.5t28 -77.5t9 -91zM377 248q0 191 -131 191q-130 0 -130 -192q0 -27 2.5 -51t11.5 -51.5t23 -47.5t38.5 -33t57.5 -13q40 0 67 16t39.5 46t17 61.5t4.5 73.5z" />
    <glyph glyph-name="c" unicode="c" horiz-adv-x="423" 
d="M406 57q-66 -63 -154 -63q-94 0 -158.5 62t-64.5 191t64.5 191.5t158.5 62.5q86 0 153 -62l-41 -46q-46 48 -107 48q-79 0 -122 -49.5t-43 -144.5t43 -145t122 -50q56 0 107 49z" />
    <glyph glyph-name="d" unicode="d" horiz-adv-x="481" 
d="M430 0h-63v68h-2q-56 -74 -143 -74q-51 0 -87.5 20.5t-56.5 57t-29 79t-9 94.5q0 51 9.5 94t30.5 81t60 59.5t94 21.5q88 0 131 -66h2v290h63v-725zM367 247q0 192 -129 192q-132 0 -132 -191q0 -193 132 -193q129 0 129 192z" />
    <glyph glyph-name="e" unicode="e" horiz-adv-x="483" 
d="M444 231h-339q-2 -79 36.5 -130t116.5 -51q63 0 116 43l39 -43q-63 -56 -153 -56q-42 0 -77.5 11t-69 37t-52.5 78t-19 126q0 70 18.5 122t49.5 80t65 40.5t72 12.5q89 0 143 -61t54 -160v-49zM381 283q-1 79 -36.5 119.5t-99.5 40.5q-62 0 -99 -42t-41 -118h276z" />
    <glyph glyph-name="f" unicode="f" horiz-adv-x="269" 
d="M260 442h-109v-442h-65v442h-60v54h60v107q0 60 34 92.5t87 32.5h53v-59h-44q-65 0 -65 -76v-97h109v-54z" />
    <glyph glyph-name="g" unicode="g" horiz-adv-x="505" 
d="M438 6q0 -105 -60.5 -158t-152.5 -53q-82 0 -145 57l41 46q54 -44 107 -44q64 0 104.5 37.5t41.5 103.5v75h-2q-52 -75 -145 -75q-51 0 -87.5 20.5t-55.5 57t-28 77t-9 90.5q0 52 8.5 96.5t28.5 83t57.5 60.5t89.5 22q92 0 141 -68h2v62h63zM112 248q0 -191 133 -191
q49 0 79 30t40 70t10 92q0 192 -129 192q-133 0 -133 -193z" />
    <glyph glyph-name="h" unicode="h" horiz-adv-x="507" 
d="M447 0h-64v307q0 132 -124 132q-57 0 -96.5 -39.5t-39.5 -101.5v-298h-63v725h63v-303h3q24 38 64.5 58.5t84.5 20.5q78 0 125 -44.5t47 -126.5v-330z" />
    <glyph glyph-name="i" unicode="i" horiz-adv-x="212" 
d="M139 631h-67v65h67v-65zM138 0h-64v496h64v-496z" />
    <glyph glyph-name="j" unicode="j" horiz-adv-x="231" 
d="M151 631h-67v65h67v-65zM150 496v-568q0 -59 -36.5 -95t-94.5 -36h-26v57h23q33 0 51 20.5t18 58.5v563h65z" />
    <glyph glyph-name="k" unicode="k" horiz-adv-x="493" 
d="M486 0h-74l-172 266q-77 -84 -108 -120v-146h-63v724h63v-495h2q87 94 238 267h75l-165 -185q15 -23 57 -87.5t89 -136t58 -87.5z" />
    <glyph glyph-name="l" unicode="l" horiz-adv-x="231" 
d="M213 0h-25q-119 0 -119 109v615h64v-608q0 -59 64 -59h16v-57z" />
    <glyph glyph-name="m" unicode="m" horiz-adv-x="835" 
d="M706 0v307q0 62 -31 97.5t-93 35.5q-58 0 -96.5 -39t-38.5 -101v-300h-63v307q0 62 -32.5 97.5t-94.5 35.5q-58 0 -94.5 -38.5t-36.5 -101.5v-300h-63v496h63v-72h2q23 38 63 57t84 19q104 0 154 -85v1l1 -1q58 85 170 85q75 0 122 -45.5t47 -123.5v-331h-63z" />
    <glyph glyph-name="n" unicode="n" horiz-adv-x="504" 
d="M445 0h-63v307q0 132 -127 132q-57 0 -95.5 -39t-38.5 -102v-298h-63v496h63v-74h3q24 38 65 58.5t84 20.5q78 0 125 -44.5t47 -126.5v-330z" />
    <glyph glyph-name="o" unicode="o" horiz-adv-x="502" 
d="M257 500q110 0 161 -81q37 -57 36 -175q-1 -107 -43 -169q-54 -81 -165 -81q-102 0 -153 66q-45 59 -45 187q0 102 39 164q57 89 170 89zM254 444q-75 0 -113 -63q-30 -48 -30 -135q0 -89 29 -136q37 -59 109 -59q85 0 118 72q23 48 23 123q0 83 -21 127q-35 71 -115 71z
" />
    <glyph glyph-name="p" unicode="p" horiz-adv-x="496" 
d="M57 496h63v-69l2 -1q52 75 146 75q179 0 179 -251q0 -51 -9 -93.5t-29.5 -81t-59.5 -60t-94 -21.5q-87 0 -133 69h-2v-261h-63v694zM120 248q0 -192 129 -192q132 0 132 191q0 39 -4 67t-15.5 60t-38.5 49.5t-69 17.5q-40 0 -68 -18.5t-41.5 -49.5t-19 -61t-5.5 -64z" />
    <glyph glyph-name="q" unicode="q" horiz-adv-x="504" 
d="M53 241q0 260 191 260q94 0 133 -76h1v71h64v-697h-64v271h-1q-52 -76 -141 -76q-181 0 -183 247zM117 247q0 -191 132 -191q129 0 129 192q0 35 -5 65t-17.5 62t-40 51t-66.5 19q-132 0 -132 -198z" />
    <glyph glyph-name="r" unicode="r" horiz-adv-x="353" 
d="M356 484l-26 -61q-30 17 -68 17q-58 0 -94 -37t-36 -101v-302h-63v496h63v-74h4q46 81 144 79q49 -2 76 -17z" />
    <glyph glyph-name="s" unicode="s" horiz-adv-x="452" 
d="M415 141q0 -65 -52.5 -106t-140.5 -41q-120 0 -202 66l39 49q71 -59 168 -59q51 0 87.5 22.5t36.5 68.5q0 41 -33 59t-93 25q-31 4 -50.5 7.5t-46 12.5t-41.5 21.5t-26 35t-11 52.5q0 67 51 107t129 40q102 0 170 -50l-35 -50q-66 42 -134 42q-53 0 -85.5 -23t-33.5 -63
q0 -38 34 -53.5t106 -24.5q163 -20 163 -138z" />
    <glyph glyph-name="t" unicode="t" horiz-adv-x="278" 
d="M255 0h-53q-53 0 -81 30t-28 86v326h-63v54h63v127h64v-127h84v-54h-84v-314q0 -33 12.5 -52t48.5 -19h37v-57z" />
    <glyph glyph-name="u" unicode="u" horiz-adv-x="515" 
d="M447 0h-63v68h-2q-46 -74 -145 -74q-74 0 -125.5 46t-51.5 124v332h64v-307q0 -64 34 -99.5t96 -35.5q57 0 94 39.5t37 102.5v300h62v-496z" />
    <glyph glyph-name="v" unicode="v" horiz-adv-x="443" 
d="M222 88h3q39 114 57 171q13 39 40 118.5t41 117.5h70l-182 -495h-58q-48 129 -183 495h69q16 -44 45.5 -130t36.5 -106q39 -112 61 -171z" />
    <glyph glyph-name="w" unicode="w" horiz-adv-x="711" 
d="M513 90h4l40 141l76 264h70q-6 -19 -44 -137.5t-70 -220t-43 -137.5h-62q-4 13 -22.5 70t-35 109t-23.5 71q-9 28 -25.5 79.5t-23.5 72.5q-6 -20 -22.5 -72.5t-25.5 -79.5q-8 -21 -41 -124.5t-40 -125.5h-62q-13 41 -78 247.5t-78 247.5h69q7 -23 39 -133.5t39 -132.5
l40 -135h3q36 113 42 133q39 118 86 268h60q7 -22 42 -132.5t43 -133.5z" />
    <glyph glyph-name="x" unicode="x" horiz-adv-x="452" 
d="M430 0h-76l-128 208l-128 -208h-76l167 254l-159 242h76l120 -199l120 199h76l-159 -243z" />
    <glyph glyph-name="y" unicode="y" horiz-adv-x="429" 
d="M211 -108q-33 -92 -123 -92h-33v56h32q51 0 71 63l27 83l-183 493h70l81 -229l62 -183h3q18 54 64 188l77 224h66z" />
    <glyph glyph-name="z" unicode="z" horiz-adv-x="428" 
d="M393 0h-359v52l285 388h-270v56h344v-55l-283 -383h283v-58z" />
    <glyph glyph-name="braceleft" unicode="{" horiz-adv-x="248" 
d="M240 -106h-57q-38 0 -62.5 29t-24.5 76v139q0 125 -74 138v39q39 8 57 47t18 93v135q0 48 24 77t62 29h57v-42h-37q-51 0 -51 -90v-130q0 -57 -23 -92.5t-48 -43.5v-2q26 -8 48.5 -43.5t22.5 -89.5v-137q0 -91 51 -91h37v-41z" />
    <glyph glyph-name="bar" unicode="|" horiz-adv-x="189" 
d="M121 -162h-50v878h50v-878z" />
    <glyph glyph-name="braceright" unicode="}" horiz-adv-x="248" 
d="M238 276q-74 -13 -74 -138v-139q0 -47 -24 -76t-62 -29h-59v41h38q51 0 51 91v137q0 54 22.5 89.5t48.5 43.5v2q-25 7 -48 43t-23 93v130q0 26 -2 42t-14 32t-35 16h-38v39h57q42 0 64.5 -28t22.5 -75v-135q0 -54 17.5 -93t57.5 -47v-39z" />
    <glyph glyph-name="asciitilde" unicode="~" horiz-adv-x="484" 
d="M449 303q-51 -80 -120 -80q-25 0 -84.5 28.5t-85.5 28.5q-24 0 -40.5 -11t-37.5 -37l-42 30q50 77 120 77q29 0 87.5 -28.5t83.5 -28.5q39 0 78 52z" />
    <glyph glyph-name="cent" unicode="&#xa2;" horiz-adv-x="484" 
d="M289 -115h-37v111q-82 10 -135 72t-53 179q0 116 53 178t135 73v106h37v-103q86 -5 150 -62l-40 -46q-48 47 -110 48v-389q59 1 110 49q33 -33 41 -45q-64 -59 -151 -62v-109zM127 247q0 -83 32 -131.5t93 -59.5v381q-125 -23 -125 -190z" />
    <glyph glyph-name="sterling" unicode="&#xa3;" horiz-adv-x="484" 
d="M39 298v52h74q-4 19 -24.5 79.5t-20.5 95.5q0 72 48 123.5t131 51.5q69 0 111.5 -19.5t79.5 -71.5l-54 -38q-49 71 -139 71q-40 0 -74 -29t-34 -88q0 -31 20 -89.5t25 -85.5h154v-52h-149q-4 -148 -69 -239h327v-59h-406v51q85 109 86 247h-86z" />
    <glyph glyph-name="currency" unicode="&#xa4;" horiz-adv-x="535" 
d="M123 435l-64 63q5 6 11.5 12.5t14.5 14t12 11.5l63 -63q53 38 115 38q58 0 112 -37l63 63l38 -39l-63 -62q40 -57 40 -115q0 -56 -38 -113q3 -3 29 -28t34 -34q-19 -20 -39 -39l-62 63q-50 -38 -114 -40q-63 2 -116 41l-63 -63q-5 5 -19 19.5t-19 19.5l63 62
q-36 54 -36 112q-1 57 38 114zM141 321q0 -55 38.5 -94t94.5 -39t95 38.5t39 94.5t-39 95t-95 39t-94.5 -39t-38.5 -95z" />
    <glyph glyph-name="yen" unicode="&#xa5;" horiz-adv-x="484" 
d="M241 348h4q13 27 76.5 171t79.5 177h67q-9 -19 -77 -164t-84 -178h132v-44h-153l-12 -26v-64h165v-44h-165v-176h-62v176h-163v44h163v64q-2 8 -11 26h-152v44h130l-165 342h67q13 -28 79 -172t81 -176z" />
    <glyph glyph-name="brokenbar" unicode="&#xa6;" horiz-adv-x="189" 
d="M121 304h-50v412h50v-412zM71 247h50v-409h-50v409z" />
    <glyph glyph-name="section" unicode="&#xa7;" horiz-adv-x="457" 
d="M425 283q0 -65 -46 -110q35 -45 35 -94q0 -70 -50.5 -113t-137.5 -43q-50 0 -98.5 20t-78.5 51l37 40q59 -56 139 -56q127 0 127 101q0 40 -32.5 64t-98.5 47q-88 29 -126.5 63.5t-38.5 95.5q0 60 52 109q-41 41 -41 95q0 66 47.5 107.5t121.5 41.5q98 0 163 -56l-35 -46
q-59 47 -130 47q-49 0 -78 -24.5t-29 -63.5q0 -18 9.5 -33.5t19.5 -25t34 -20.5t36 -15.5t42 -15.5q157 -51 157 -166zM368 284q2 43 -31.5 66.5t-107.5 48.5q-47 17 -71 30q-45 -32 -45 -76q0 -17 9 -32.5t17.5 -24.5t31 -20t30.5 -14t34 -13q67 -24 98 -41q35 26 35 76z
" />
    <glyph glyph-name="dieresis" unicode="&#xa8;" horiz-adv-x="487" 
d="M372 602h-72v72h72v-72zM187 602h-72v72h72v-72z" />
    <glyph glyph-name="copyright" unicode="&#xa9;" horiz-adv-x="792" 
d="M494 235l48 -22q-17 -44 -53.5 -68.5t-86.5 -24.5q-72 0 -111 45t-39 113v118q0 66 39.5 111t110.5 45q49 0 85 -24t54 -65l-47 -22q-28 62 -91 62q-48 0 -74.5 -31.5t-26.5 -77.5v-114q0 -46 26.5 -79t74.5 -33q64 0 91 67zM399 -9q-148 0 -246.5 100t-98.5 250
t99 250.5t246 100.5t246.5 -100.5t99.5 -250.5q0 -149 -99.5 -249.5t-246.5 -100.5zM399 644q-125 0 -209.5 -87t-84.5 -216q0 -128 84.5 -215t209.5 -87q126 0 210 87t84 215q0 129 -84 216t-210 87z" />
    <glyph glyph-name="guillemotleft" unicode="&#xab;" horiz-adv-x="433" 
d="M390 46h-61l-122 180l122 179h61l-119 -179zM237 46h-63l-121 180l122 179h62l-120 -179z" />
    <glyph glyph-name="logicalnot" unicode="&#xac;" horiz-adv-x="484" 
d="M455 313l-1 -244h-50v193h-376v51h427z" />
    <glyph glyph-name="sfthyphen" unicode="&#xad;" horiz-adv-x="381" 
d="M329 224h-277v59h277v-59z" />
    <glyph glyph-name="registered" unicode="&#xae;" horiz-adv-x="553" 
d="M484 492q0 -89 -59.5 -148.5t-147.5 -59.5q-87 0 -147 59.5t-60 148.5q0 90 60 150t147 60q89 0 148 -60t59 -150zM450 492q0 76 -49.5 128t-123.5 52q-73 0 -122.5 -51.5t-49.5 -128.5q0 -76 49.5 -127t122.5 -51q74 0 123.5 51t49.5 127zM339 371l-53 104h-51v-104h-34
v242h99q31 0 51.5 -18.5t20.5 -48.5q0 -51 -51 -66l57 -109h-39zM295 583h-60v-76h59q19 0 31.5 10.5t12.5 28.5q0 37 -43 37z" />
    <glyph glyph-name="macron" unicode="&#xaf;" horiz-adv-x="483" 
d="M390 597h-262v58h262v-58z" />
    <glyph glyph-name="degree" unicode="&#xb0;" horiz-adv-x="374" 
d="M315 572q0 -53 -37.5 -90.5t-90.5 -37.5t-91 37.5t-38 90.5t38 91t91 38q54 0 91 -37.5t37 -91.5zM272 572q0 35 -25 60.5t-60 25.5t-60 -25.5t-25 -60.5t25 -59.5t60 -24.5q36 0 60.5 24t24.5 60z" />
    <glyph glyph-name="plusminus" unicode="&#xb1;" horiz-adv-x="484" 
d="M454 281h-185v-181h-50v181h-185v51h185v180h50v-180h185v-51zM455 0h-421v51h421v-51z" />
    <glyph glyph-name="twosuperior" unicode="&#xb2;" horiz-adv-x="298" 
d="M274 370h-256v45l182 210q24 27 24 56q0 25 -19.5 42.5t-53.5 17.5q-28 0 -48.5 -17t-28.5 -46l-52 7q10 47 46 75t83 28q58 0 93 -28.5t35 -77.5q0 -44 -33 -82q-3 -3 -157 -182h185v-48z" />
    <glyph glyph-name="threesuperior" unicode="&#xb3;" horiz-adv-x="300" 
d="M281 493q0 -57 -38.5 -92.5t-99.5 -35.5q-45 0 -79 21.5t-46 69.5l52 8q14 -52 73 -52q36 0 60.5 22.5t24.5 56.5q0 35 -21 54.5t-54 19.5h-38v45h33q32 0 53 18t21 47t-21 48.5t-55 19.5q-22 0 -43 -14.5t-30 -38.5l-51 8q10 40 45 66t79 26q64 0 96 -32.5t32 -80.5
q0 -60 -52 -89q59 -30 59 -95z" />
    <glyph glyph-name="acute" unicode="&#xb4;" horiz-adv-x="487" 
d="M240 557l-41 16l75 166l66 -22z" />
    <glyph glyph-name="mu" unicode="&#xb5;" horiz-adv-x="518" 
d="M456 0h-63v68h-3q-46 -74 -145 -74q-65 0 -110 43h-3v-237h-63v696h63v-307q0 -62 37 -97.5t94 -35.5q56 0 93 38.5t37 101.5v300h63v-496z" />
    <glyph glyph-name="mu" unicode="&#x3bc;" horiz-adv-x="518" 
d="M456 0h-63v68h-3q-46 -74 -145 -74q-65 0 -110 43h-3v-237h-63v696h63v-307q0 -62 37 -97.5t94 -35.5q56 0 93 38.5t37 101.5v300h63v-496z" />
    <glyph glyph-name="paragraph" unicode="&#xb6;" horiz-adv-x="529" 
d="M377 661h-92v-742h-61v422q-30 0 -56 6q-61 9 -97 58.5t-36 118.5q0 79 46.5 134.5t133.5 55.5h275v-53h-53v-742h-60v742z" />
    <glyph glyph-name="periodcentered" unicode="&#xb7;" horiz-adv-x="206" 
d="M144 224h-81v89h81v-89z" />
    <glyph glyph-name="cedilla" unicode="&#xb8;" horiz-adv-x="423" 
d="M259 25l-21 -66q52 -3 74.5 -27.5t22.5 -52.5q0 -29 -24.5 -53.5t-72.5 -24.5q-52 0 -89 15l12 32q34 -14 73 -14q20 0 37 12t17 33t-19.5 34.5t-51.5 13.5q-1 0 -4 -0.5t-4 -0.5l-15 12q6 17 28 89q7 0 19 -1t18 -1z" />
    <glyph glyph-name="onesuperior" unicode="&#xb9;" horiz-adv-x="278" 
d="M178 786v-416h-53v359l-61 -38v54l64 41h50z" />
    <glyph glyph-name="guillemotright" unicode="&#xbb;" horiz-adv-x="433" 
d="M116 46h-62l119 180l-119 179h61l123 -179zM269 46h-61l119 180l-119 179h61l122 -179z" />
    <glyph glyph-name="onequarter" unicode="&#xbc;" horiz-adv-x="770" 
d="M208 696v-416h-53v359l-61 -38v54l64 41h50zM597 718l-425 -739h-48l424 739h49zM679 63h-38v-63h-52v63h-197v43l159 310h58l-159 -305h139v121h52v-121h38v-48z" />
    <glyph glyph-name="onehalf" unicode="&#xbd;" horiz-adv-x="770" 
d="M195 696v-416h-53v359l-61 -38v54l64 41h50zM581 718l-425 -739h-48l424 739h49zM686 0h-255v45l181 210q24 29 24 57q0 25 -19 42t-54 17q-27 0 -48 -17.5t-28 -45.5l-52 8q10 46 46 74t83 28q58 0 93 -28.5t35 -76.5q0 -45 -34 -82q-18 -22 -157 -183h185v-48z" />
    <glyph glyph-name="threequarters" unicode="&#xbe;" horiz-adv-x="770" 
d="M297 403q0 -57 -38.5 -92.5t-99.5 -35.5q-45 0 -79 21.5t-46 69.5l52 8q14 -52 73 -52q36 0 60.5 22.5t24.5 56.5q0 35 -21 54.5t-54 19.5h-38v45h33q32 0 53 18t21 47t-21 48.5t-55 19.5q-22 0 -43 -14.5t-30 -38.5l-51 8q10 40 45 66t79 26q64 0 96 -32.5t32 -80.5
q0 -60 -52 -89q59 -30 59 -95zM655 718l-425 -739h-48l424 739h49zM736 63h-38v-63h-52v63h-197v43l159 310h58l-159 -305h139v121h52v-121h38v-48z" />
    <glyph glyph-name="Adieresis" unicode="&#xc4;" horiz-adv-x="592" 
d="M509 0q-15 40 -58 165h-312q-9 -24 -18.5 -52t-21.5 -61.5t-18 -51.5h-71q84 232 254 696h62l255 -696h-72zM296 609h-3q-22 -70 -61 -178q-15 -40 -40.5 -112.5t-33.5 -95.5h273l-78 225zM348 764v70h71v-70h-71zM169 764v70h71v-70h-71z" />
    <glyph glyph-name="Ccedilla" unicode="&#xc7;" horiz-adv-x="536" 
d="M457 168l63 -30q-27 -67 -83 -105t-135 -39l-11 -35q52 -3 74.5 -27.5t22.5 -52.5q0 -29 -24.5 -53.5t-72.5 -24.5q-51 0 -89 15l12 32q34 -14 73 -14q20 0 37 12t17 33t-19.5 34.5t-51.5 13.5q-2 0 -4 -0.5t-4 -0.5l-15 12l18 58q-106 9 -159.5 79.5t-53.5 173.5v199
q0 109 62 181t182 72q79 0 136.5 -37t85.5 -102l-63 -29q-19 47 -60.5 75.5t-97.5 28.5q-89 0 -133.5 -55t-44.5 -137v-193q0 -83 44 -139t134 -56q57 0 98 29.5t62 81.5z" />
    <glyph glyph-name="Eacute" unicode="&#xc9;" horiz-adv-x="536" 
d="M509 0h-432v696h432v-62h-364v-252h310v-60h-310v-260h364v-62zM259 734l-29 32l142 115l47 -49z" />
    <glyph glyph-name="Ntilde" unicode="&#xd1;" horiz-adv-x="668" 
d="M525 0l-258 392l-120 188q-1 0 -1 -0.5t-1 -0.5v-579h-67v696h67l252 -384l126 -199l2 2v581h66v-696h-66zM274 856q24 0 69 -22.5t61 -22.5q32 0 60 43l40 -23q-39 -78 -96 -78q-23 0 -68.5 21.5t-63.5 21.5q-32 0 -64 -39l-38 22q41 77 100 77z" />
    <glyph glyph-name="Odieresis" unicode="&#xd6;" horiz-adv-x="583" 
d="M414 765h-72v70h72v-70zM235 765h-72v70h72v-70zM292 701q121 0 182 -69t61 -184v-199q0 -117 -65.5 -186t-177.5 -69q-119 0 -181.5 72.5t-62.5 182.5v199q0 108 63.5 180.5t180.5 72.5zM293 637q-88 0 -133 -55t-45 -136v-195q0 -83 44.5 -139t133.5 -56q83 0 128 54.5
t45 142.5v193q0 84 -44.5 137.5t-128.5 53.5z" />
    <glyph glyph-name="multiply" unicode="&#xd7;" horiz-adv-x="541" 
d="M476 434l-160 -160l161 -162l-35 -35l-161 160l-161 -161l-36 36l161 162l-159 160l35 35l160 -159l160 160z" />
    <glyph glyph-name="Udieresis" unicode="&#xdc;" horiz-adv-x="612" 
d="M481 696h69v-454q0 -113 -67.5 -180.5t-176.5 -67.5q-113 0 -178 71.5t-65 180.5v450h67v-441q0 -83 47.5 -140t129.5 -57q79 0 126.5 51.5t47.5 141.5v445zM433 765h-72v70h72v-70zM254 765h-72v70h72v-70z" />
    <glyph glyph-name="agrave" unicode="&#xe0;" horiz-adv-x="483" 
d="M368 48l-1 1q-35 -55 -152 -55q-79 0 -127 38.5t-48 105.5q0 62 41.5 102t117.5 40h169v64q0 98 -129 98q-83 0 -128 -46l-40 43q59 62 167 62q193 0 193 -157v-344h-63v48zM368 228h-154q-54 0 -84 -22.5t-30 -64.5q0 -43 32.5 -67t90.5 -24q59 0 102 22.5t43 76.5v79z
M289 573q-16 -8 -40 -16l-99 159q8 3 30 10.5t34 11.5z" />
    <glyph glyph-name="aacute" unicode="&#xe1;" horiz-adv-x="483" 
d="M368 48l-1 1q-35 -55 -152 -55q-79 0 -127 38.5t-48 105.5q0 62 41.5 102t117.5 40h169v64q0 98 -129 98q-83 0 -128 -46l-40 43q59 62 167 62q193 0 193 -157v-344h-63v48zM368 228h-154q-54 0 -84 -22.5t-30 -64.5q0 -43 32.5 -67t90.5 -24q59 0 102 22.5t43 76.5v79z
M274 557l-40 16l76 165q8 -3 30 -10.5t34 -11.5z" />
    <glyph glyph-name="acircumflex" unicode="&#xe2;" horiz-adv-x="483" 
d="M368 48l-1 1q-35 -55 -152 -55q-79 0 -127 38.5t-48 105.5q0 62 41.5 102t117.5 40h169v64q0 98 -129 98q-83 0 -128 -46l-40 43q59 62 167 62q193 0 193 -157v-344h-63v48zM368 228h-154q-54 0 -84 -22.5t-30 -64.5q0 -43 32.5 -67t90.5 -24q59 0 102 22.5t43 76.5v79z
M376 555l-130 101q-37 -31 -130 -102l-30 29l141 139h45l134 -138z" />
    <glyph glyph-name="adieresis" unicode="&#xe4;" horiz-adv-x="483" 
d="M368 48l-1 1q-35 -55 -152 -55q-79 0 -127 38.5t-48 105.5q0 62 41.5 102t117.5 40h169v64q0 98 -129 98q-83 0 -128 -46l-40 43q59 62 167 62q193 0 193 -157v-344h-63v48zM368 228h-154q-54 0 -84 -22.5t-30 -64.5q0 -43 32.5 -67t90.5 -24q59 0 102 22.5t43 76.5v79z
M308 602v71h71v-71h-71zM124 602v71h71v-71h-71z" />
    <glyph glyph-name="ccedilla" unicode="&#xe7;" horiz-adv-x="423" 
d="M406 56q-69 -62 -154 -62h-3l-11 -35q52 -3 74.5 -27.5t22.5 -53.5t-24.5 -53t-72.5 -24q-54 0 -89 14l12 33q34 -14 73 -14q20 0 37 12.5t17 31.5q0 23 -21 36t-56 12q-2 0 -9 6t-8 6l19 59q-81 12 -132.5 73.5t-51.5 176.5q0 129 64.5 191.5t158.5 62.5q86 0 153 -62
l-41 -46q-48 48 -108 48q-79 0 -121.5 -49.5t-42.5 -144.5t42.5 -145t121.5 -50q57 0 108 49z" />
    <glyph glyph-name="egrave" unicode="&#xe8;" horiz-adv-x="483" 
d="M444 231h-339q-2 -79 36.5 -130t116.5 -51q63 0 116 43l39 -43q-63 -56 -153 -56q-42 0 -77.5 11t-69 37t-52.5 78t-19 126q0 70 18 122t48.5 80t64 40.5t71.5 12.5q89 0 144.5 -61t55.5 -160v-49zM378 283q-2 78 -37.5 119t-95.5 41q-62 0 -99 -42t-41 -118h273z
M290 573l-41 -16l-100 160l65 22z" />
    <glyph glyph-name="eacute" unicode="&#xe9;" horiz-adv-x="483" 
d="M444 231h-339q-2 -79 36.5 -130t116.5 -51q63 0 116 43l39 -43q-63 -56 -153 -56q-42 0 -77.5 11t-69 37t-52.5 78t-19 126q0 70 18 122t48.5 80t64 40.5t71.5 12.5q89 0 144.5 -61t55.5 -160v-49zM378 283q-2 78 -37.5 119t-95.5 41q-62 0 -99 -42t-41 -118h273z
M246 557l-41 16l75 166l66 -22z" />
    <glyph glyph-name="ecircumflex" unicode="&#xea;" horiz-adv-x="483" 
d="M444 231h-339q-2 -79 36.5 -130t116.5 -51q63 0 116 43l39 -43q-63 -56 -153 -56q-42 0 -77.5 11t-69 37t-52.5 78t-19 126q0 70 18 122t48.5 80t64 40.5t71.5 12.5q89 0 144.5 -61t55.5 -160v-49zM378 283q-2 78 -37.5 119t-95.5 41q-62 0 -99 -42t-41 -118h273z
M377 555l-130 102l-130 -103l-31 30l142 138h45l134 -137z" />
    <glyph glyph-name="edieresis" unicode="&#xeb;" horiz-adv-x="483" 
d="M444 231h-339q-2 -79 36.5 -130t116.5 -51q63 0 116 43l39 -43q-63 -56 -153 -56q-42 0 -77.5 11t-69 37t-52.5 78t-19 126q0 70 18 122t48.5 80t64 40.5t71.5 12.5q89 0 144.5 -61t55.5 -160v-49zM378 283q-2 78 -37.5 119t-95.5 41q-62 0 -99 -42t-41 -118h273z
M378 602h-72v72h72v-72zM194 602h-72v72h72v-72z" />
    <glyph glyph-name="iacute" unicode="&#xed;" horiz-adv-x="200" 
d="M132 0h-68v495h68v-495zM121 557l-41 16l75 166l65 -22z" />
    <glyph glyph-name="icircumflex" unicode="&#xee;" horiz-adv-x="281" 
d="M175 0h-68v495h68v-495zM270 555l-129 102l-131 -103l-30 30l140 138h46l135 -137z" />
    <glyph glyph-name="idieresis" unicode="&#xef;" horiz-adv-x="216" 
d="M143 0h-68v495h68v-495zM236 602h-72v72h72v-72zM52 602h-72v72h72v-72z" />
    <glyph glyph-name="ntilde" unicode="&#xf1;" horiz-adv-x="504" 
d="M445 0h-63v307q0 132 -127 132q-57 0 -95.5 -39t-38.5 -102v-298h-63v496h63v-74h3q24 38 65 58.5t84 20.5q78 0 125 -44.5t47 -126.5v-330zM176 686q24 0 69 -22.5t61 -22.5q32 0 60 43l40 -23q-39 -78 -96 -78q-23 0 -68.5 21.5t-63.5 21.5q-32 0 -64 -39l-38 22
q41 77 100 77z" />
    <glyph glyph-name="oacute" unicode="&#xf3;" horiz-adv-x="502" 
d="M268 557l-40 16l75 166l65 -22zM257 500q110 0 161 -81q37 -57 36 -175q-1 -107 -43 -169q-54 -81 -165 -81q-102 0 -153 66q-45 59 -45 187q0 102 39 164q57 89 170 89zM254 444q-75 0 -113 -63q-30 -48 -30 -135q0 -89 29 -136q37 -59 109 -59q85 0 118 72
q23 48 23 123q0 83 -21 127q-35 71 -115 71z" />
    <glyph glyph-name="ocircumflex" unicode="&#xf4;" horiz-adv-x="502" 
d="M379 555l-129 102l-130 -103l-31 30l141 138h45l135 -137zM257 500q110 0 161 -81q37 -57 36 -175q-1 -107 -43 -169q-54 -81 -165 -81q-102 0 -153 66q-45 59 -45 187q0 102 39 164q57 89 170 89zM254 444q-75 0 -113 -63q-30 -48 -30 -135q0 -89 29 -136
q37 -59 109 -59q85 0 118 72q23 48 23 123q0 83 -21 127q-35 71 -115 71z" />
    <glyph glyph-name="odieresis" unicode="&#xf6;" horiz-adv-x="502" 
d="M376 602h-72v72h72v-72zM192 602h-72v72h72v-72zM257 500q110 0 161 -81q37 -57 36 -175q-1 -107 -43 -169q-54 -81 -165 -81q-102 0 -153 66q-45 59 -45 187q0 102 39 164q57 89 170 89zM254 444q-75 0 -113 -63q-30 -48 -30 -135q0 -89 29 -136q37 -59 109 -59
q85 0 118 72q23 48 23 123q0 83 -21 127q-35 71 -115 71z" />
    <glyph glyph-name="divide" unicode="&#xf7;" horiz-adv-x="484" 
d="M293 461q0 -19 -14.5 -33.5t-33.5 -14.5q-20 0 -34 14t-14 34t14 33.5t34 13.5t34 -13.5t14 -33.5zM460 262h-433v50h433v-50zM246 160q19 0 33 -13.5t14 -33.5t-14 -34t-34 -14t-34 14t-14 34t14.5 33.5t34.5 13.5z" />
    <glyph glyph-name="ugrave" unicode="&#xf9;" horiz-adv-x="515" 
d="M447 0h-63v68h-2q-46 -74 -145 -74q-74 0 -125.5 46t-51.5 124v332h64v-307q0 -64 34 -99.5t96 -35.5q57 0 94 39.5t37 102.5v300h62v-496zM297 573l-41 -16l-100 160l66 22z" />
    <glyph glyph-name="uacute" unicode="&#xfa;" horiz-adv-x="515" 
d="M447 0h-63v68h-2q-46 -74 -145 -74q-74 0 -125.5 46t-51.5 124v332h64v-307q0 -64 34 -99.5t96 -35.5q57 0 94 39.5t37 102.5v300h62v-496zM276 557l-41 16l75 166l66 -22z" />
    <glyph glyph-name="ucircumflex" unicode="&#xfb;" horiz-adv-x="515" 
d="M447 0h-63v68h-2q-46 -74 -145 -74q-74 0 -125.5 46t-51.5 124v332h64v-307q0 -64 34 -99.5t96 -35.5q57 0 94 39.5t37 102.5v300h62v-496zM384 555l-130 102l-130 -103l-30 30l140 138h46l135 -137z" />
    <glyph glyph-name="udieresis" unicode="&#xfc;" horiz-adv-x="515" 
d="M447 0h-63v68h-2q-46 -74 -145 -74q-74 0 -125.5 46t-51.5 124v332h64v-307q0 -64 34 -99.5t96 -35.5q57 0 94 39.5t37 102.5v300h62v-496zM375 602h-72v72h72v-72zM191 602h-72v72h72v-72z" />
    <glyph glyph-name="OE" unicode="&#x152;" horiz-adv-x="801" 
d="M774 0h-426q-30 -6 -62 -6q-118 0 -181 73t-63 182v199q0 108 63.5 180.5t180.5 72.5q28 0 58 -5h430v-62h-364v-252h311v-60h-311v-260h364v-62zM287 56q31 0 56 9v565q-24 7 -56 7q-85 0 -131 -55.5t-46 -135.5v-195q0 -81 46 -138t131 -57z" />
    <glyph glyph-name="oe" unicode="&#x153;" horiz-adv-x="828" 
d="M415 95h-2q-25 -49 -72 -75t-105 -26q-102 0 -153 66q-45 59 -45 187q0 102 39 164q57 89 170 89q56 0 101.5 -26.5t68.5 -71.5h2q52 99 168 99q90 0 145 -61.5t55 -160.5v-48h-339q0 -60 17 -98q36 -82 135 -82q65 0 117 43l39 -45q-62 -55 -153 -55q-136 0 -188 101z
M244 444q-75 0 -113 -63q-30 -48 -30 -135q0 -89 29 -136q37 -59 109 -59q85 0 118 72q23 48 23 123q0 83 -21 127q-35 71 -115 71zM588 443q-62 0 -99 -42t-41 -119h274q-3 79 -38 120t-96 41z" />
    <glyph glyph-name="florin" unicode="&#x192;" horiz-adv-x="484" 
d="M123 360q0 9 -0.5 26.5t-0.5 26.5h98q18 128 35 173q42 114 153 114q41 0 77 -12q-1 -5 -16 -58q-29 10 -63 10q-69 0 -94 -84q-12 -37 -25 -143h108q0 -9 0.5 -26.5t0.5 -26.5h-117l-33 -236q-14 -107 -51 -161t-116 -54q-42 0 -85 15q1 3 7.5 21t10.5 32q33 -12 61 -12
q83 0 103 143l36 252h-89z" />
    <glyph glyph-name="circumflex" unicode="&#x2c6;" horiz-adv-x="487" 
d="M377 555l-130 102l-130 -103l-31 30l142 138h45l134 -137z" />
    <glyph glyph-name="uni060B" unicode="&#x60b;" horiz-adv-x="666" 
d="M65 0v63h215q40 0 73 -4l1 4q-68 18 -106 70.5t-38 134.5q0 87 53 146.5t146 59.5q96 0 146.5 -62t50.5 -172q0 -115 -49 -177.5t-144 -62.5h-348zM544 243q0 169 -135 169q-67 0 -101 -43.5t-34 -104.5q0 -155 209 -180q61 37 61 159zM444 555h-69v70h69v-70zM431 -67
v-172h-43v172h43z" />
    <glyph glyph-name="uni060C" unicode="&#x60c;" horiz-adv-x="226" 
d="M122 228h44q-15 -54 -34 -128h26v-100h-93v98z" />
    <glyph glyph-name="uni0615" unicode="&#x615;" horiz-adv-x="0" 
d="M41 133q27 0 43.5 -15t16.5 -42v-76h-202v36h32v130h36v-66h2q30 33 72 33zM30 97q-24 0 -43 -19t-19 -42h96v20q0 41 -34 41z" />
    <glyph glyph-name="uni061B" unicode="&#x61b;" horiz-adv-x="225" 
d="M158 0h-93v100h93v-100zM121 411h44q-6 -21 -17 -63.5t-17 -63.5h27v-101h-93v102z" />
    <glyph glyph-name="uni061E" unicode="&#x61e;" horiz-adv-x="314" 
d="M254 0h-74v77h74v-77zM140 0h-75v77h75v-77zM198 117h-75v77h75v-77z" />
    <glyph glyph-name="uni061F" unicode="&#x61f;" horiz-adv-x="523" 
d="M65 493q0 77 52.5 127.5t138.5 50.5q77 0 131.5 -43t75.5 -130l-64 -12q-7 42 -43 82.5t-93 40.5q-68 0 -100.5 -35t-32.5 -84q0 -28 16.5 -56.5t39.5 -53t46.5 -50t40 -59.5t16.5 -71v-51h-66v46q0 30 -16 58.5t-39 53t-46 50.5t-39.5 61.5t-17.5 74.5zM293 0h-73v79h73
v-79z" />
    <glyph glyph-name="uni0640" unicode="&#x640;" horiz-adv-x="81" 
d="M-34 30q0 14 9.5 23.5t24.5 9.5h81v-63h-81q-15 0 -24.5 8.5t-9.5 21.5z" />
    </font>
</defs>
</svg>
