<?xml version="1.0" standalone="no"?>
<!DOCTYPE svg PUBLIC "-//W3C//DTD SVG 1.1//EN" "http://www.w3.org/Graphics/SVG/1.1/DTD/svg11.dtd" >
<svg xmlns="http://www.w3.org/2000/svg" xmlns:xlink="http://www.w3.org/1999/xlink" version="1.1">
<metadata>
Created by FontForge 20170731 at Fri Jun  4 23:29:17 2010
 By Aleksey,,,
Copyright (c) 2002, 2005, 2010 Parachute :, www.parachute.gr.  All rights reserved.
</metadata>
<defs>
<font id="PFDinTextArabic-Medium" horiz-adv-x="494" >
  <font-face 
    font-family="PF DinText Arabic Medium"
    font-weight="500"
    font-stretch="normal"
    units-per-em="1000"
    panose-1="2 0 5 6 2 0 0 2 0 4"
    ascent="750"
    descent="-250"
    x-height="495"
    cap-height="696"
    bbox="-204 -452 1126 974"
    underline-thickness="50"
    underline-position="-250"
    unicode-range="U+0020-FEFC"
  />
<missing-glyph horiz-adv-x="450" 
d="M0 0v700h450v-700h-450zM109 73h232l-116 210zM225 418l116 209h-233zM73 554v-407l111 204zM266 349l111 -202v407z" />
    <glyph glyph-name="uniFDF2" unicode="&#xfedf;&#xfee0;&#xfeea;" horiz-adv-x="1066" arabic-form="isolated" 
d="M821 113q84 0 84 103v510h103v-548q0 -86 -49.5 -132t-130.5 -46q-94 0 -143 59q-49 -59 -144 -59q-120 0 -160 77q-61 -46 -143 -46q-89 0 -134.5 43t-45.5 117q0 28 7.5 55.5t28.5 58.5t54 55.5t89 45t128 29.5v43h105v-285q0 -35 19 -58t62 -23q41 0 62.5 27.5
t21.5 68.5v418h103v-412q0 -101 83 -101zM168 205q0 -30 20 -48t57 -18q56 0 88.5 27t32.5 96v71q-61 -7 -103.5 -23t-61.5 -36t-26 -36t-7 -33z" />
    <glyph glyph-name="uniFDFC" unicode="&#x631;&#xfef3;&#xfe8e;&#x644;" horiz-adv-x="1157" arabic-form="isolated" 
d="M807 452h103v-266q0 -89 -50 -137.5t-138 -48.5q-79 0 -127.5 45.5t-48.5 130.5v550h103v-517q0 -96 78 -96q40 0 60 26.5t20 69.5v243zM795 -167h-90v94h90v-94zM674 -167h-91v94h91v-94zM470 626v-633q0 -87 -55 -143t-152 -56q-98 0 -151.5 51.5t-53.5 137.5v299h103
v-267q0 -47 24.5 -77.5t78.5 -30.5q53 0 78 32t25 81v606h103zM871 -94q69 0 97 28t28 83v370h103v-376q0 -113 -52 -164.5t-176 -52.5v112z" />
    <glyph glyph-name="uni06440622" unicode="&#xfedf;&#xfe82;" horiz-adv-x="508" arabic-form="isolated" 
d="M450 726v-504q0 -121 -59 -175t-154 -54q-114 0 -187 83l74 87q50 -54 110 -54q113 0 113 125v492h103zM115 696h103v-488h-103v488zM143 772l-14 -6l-70 -38v72l91 52h14q11 -26 23.5 -35.5t39.5 -9.5h76v-62h-76q-36 0 -53.5 5t-30.5 22z" />
    <glyph glyph-name="uni06440622.fina" unicode="&#xfee0;&#xfe82;" horiz-adv-x="533" arabic-form="final" 
d="M115 696h103v-488h-103v488zM241 -6q-119 0 -191 82l73 86q48 -53 111 -53q57 0 85 29t28 96v492h103v-528q0 -86 83 -86v-112q-99 0 -130 60q-27 -33 -72.5 -49.5t-89.5 -16.5zM143 772l-14 -6l-70 -38v72l91 52h14q11 -26 23.5 -35.5t39.5 -9.5h76v-62h-76
q-36 0 -53.5 5t-30.5 22z" />
    <glyph glyph-name="uni06440623" unicode="&#xfedf;&#xfe84;" horiz-adv-x="508" arabic-form="isolated" 
d="M450 726v-504q0 -121 -59 -175t-154 -54q-114 0 -187 83l74 87q50 -54 110 -54q113 0 113 125v492h103zM115 696h103v-488h-103v488zM212 935q49 0 87 -26l-26 -51q-30 18 -63 18q-22 0 -34.5 -11t-12.5 -27q0 -35 41 -35h94v-58h-229v58h37l2 2q-10 13 -10 35
q0 35 28 65t86 30z" />
    <glyph glyph-name="uni06440623.fina" unicode="&#xfee0;&#xfe84;" horiz-adv-x="533" arabic-form="final" 
d="M115 696h103v-488h-103v488zM241 -6q-119 0 -191 82l73 86q48 -53 111 -53q57 0 85 29t28 96v492h103v-528q0 -86 83 -86v-112q-99 0 -130 60q-27 -33 -72.5 -49.5t-89.5 -16.5zM212 935q49 0 87 -26l-26 -51q-30 18 -63 18q-22 0 -34.5 -11t-12.5 -27q0 -35 41 -35h94
v-58h-229v58h37l2 2q-10 13 -10 35q0 35 28 65t86 30z" />
    <glyph glyph-name="uni06440625" unicode="&#xfedf;&#xfe88;" horiz-adv-x="508" arabic-form="isolated" 
d="M450 726v-504q0 -121 -59 -175t-154 -54q-114 0 -187 83l74 87q50 -54 110 -54q113 0 113 125v492h103zM115 696h103v-488h-103v488zM212 -82q49 0 87 -26l-26 -51q-30 18 -63 18q-22 0 -34.5 -11t-12.5 -27q0 -35 41 -35h94v-58h-229v58h37l2 2q-10 13 -10 35
q0 35 28 65t86 30z" />
    <glyph glyph-name="uni06440625.fina" unicode="&#xfee0;&#xfe88;" horiz-adv-x="533" arabic-form="final" 
d="M115 696h103v-488h-103v488zM241 -6q-119 0 -191 82l73 86q48 -53 111 -53q57 0 85 29t28 96v492h103v-528q0 -86 83 -86v-112q-99 0 -130 60q-27 -33 -72.5 -49.5t-89.5 -16.5zM212 -82q49 0 87 -26l-26 -51q-30 18 -63 18q-22 0 -34.5 -11t-12.5 -27q0 -35 41 -35h94
v-58h-229v58h37l2 2q-10 13 -10 35q0 35 28 65t86 30z" />
    <glyph glyph-name="uni06440627" unicode="&#xfedf;&#xfe8e;" horiz-adv-x="508" arabic-form="isolated" 
d="M450 726v-504q0 -121 -59 -175t-154 -54q-114 0 -187 83l74 87q50 -54 110 -54q113 0 113 125v492h103zM115 696h103v-488h-103v488z" />
    <glyph glyph-name="uni06440627.fina" unicode="&#xfee0;&#xfe8e;" horiz-adv-x="533" arabic-form="final" 
d="M115 696h103v-488h-103v488zM241 -6q-119 0 -191 82l73 86q48 -53 111 -53q57 0 85 29t28 96v492h103v-528q0 -86 83 -86v-112q-99 0 -130 60q-27 -33 -72.5 -49.5t-89.5 -16.5z" />
    <glyph glyph-name="uni06440671" unicode="&#xfedf;&#xfb51;" horiz-adv-x="508" 
d="M450 726v-504q0 -121 -59 -175t-154 -54q-114 0 -187 83l74 87q50 -54 110 -54q113 0 113 125v492h103zM115 696h103v-488h-103v488zM243 859q-24 0 -40 -16.5t-16 -40.5h91v24q0 15 -10 24t-25 9zM337 745h-218q-42 0 -59 34q-7 -6 -20 -18.5t-17 -16.5h-4v68l46 46h8
q17 -55 46 -55h8v113h60v-31h3q31 31 73 31q31 0 52.5 -18t21.5 -52v-101z" />
    <glyph glyph-name="uni06440671.fina" unicode="&#xfee0;&#xfb51;" horiz-adv-x="533" 
d="M115 696h103v-488h-103v488zM241 -6q-119 0 -191 82l73 86q48 -53 111 -53q57 0 85 29t28 96v492h103v-528q0 -86 83 -86v-112q-99 0 -130 60q-27 -33 -72.5 -49.5t-89.5 -16.5zM243 859q-24 0 -40 -16.5t-16 -40.5h91v24q0 15 -10 24t-25 9zM337 745h-218q-42 0 -59 34
q-7 -6 -20 -18.5t-17 -16.5h-4v68l46 46h8q17 -55 46 -55h8v113h60v-31h3q31 31 73 31q31 0 52.5 -18t21.5 -52v-101z" />
    <glyph glyph-name="uni0621" unicode="&#x621;" horiz-adv-x="527" arabic-form="isolated" 
d="M239 162q0 -30 21.5 -45t54.5 -15h138v-102h-395v102h90q1 1 1 2q-15 27 -15 63q0 64 44.5 111.5t139.5 47.5q35 0 77.5 -14t73.5 -38q-9 -16 -25.5 -46.5t-21.5 -39.5q-51 39 -104 39q-36 0 -57.5 -19.5t-21.5 -45.5z" />
    <glyph glyph-name="uni0622" unicode="&#x622;" horiz-adv-x="219" arabic-form="isolated" 
d="M58 676h103v-676h-103v676zM71 747l-14 -6l-70 -38v72l91 52h14q11 -26 23.5 -35.5t39.5 -9.5h76v-62h-76q-36 0 -53.5 5t-30.5 22z" />
    <glyph glyph-name="uni0623" unicode="&#x623;" horiz-adv-x="219" arabic-form="isolated" 
d="M58 676h103v-676h-103v676zM137 930q49 0 87 -26l-26 -51q-30 18 -63 18q-22 0 -34.5 -11t-12.5 -27q0 -35 41 -35h94v-58h-229v58h37l2 2q-10 13 -10 35q0 35 28 65t86 30z" />
    <glyph glyph-name="uni0624" unicode="&#x624;" horiz-adv-x="541" arabic-form="isolated" 
d="M483 242v-225q0 -118 -61.5 -178.5t-174.5 -60.5h-146v113h140q131 0 131 114v23q-4 2 -6 4q-39 -30 -98 -30q-101 0 -155.5 58.5t-54.5 173.5q0 114 58 179t163 65q96 0 150 -60t54 -176zM274 365q-53 0 -81.5 -35t-28.5 -95q0 -57 26.5 -91t77.5 -34q109 0 109 132
q0 60 -28 91.5t-75 31.5zM291 745q49 0 87 -26l-26 -51q-30 18 -63 18q-22 0 -34.5 -11t-12.5 -27q0 -35 41 -35h94v-58h-229v58h37l2 2q-10 13 -10 35q0 35 28 65t86 30z" />
    <glyph glyph-name="uni0625" unicode="&#x625;" horiz-adv-x="219" arabic-form="isolated" 
d="M58 726h103v-726h-103v726zM137 -82q49 0 87 -26l-26 -51q-30 18 -63 18q-22 0 -34.5 -11t-12.5 -27q0 -35 41 -35h94v-58h-229v58h37l2 2q-10 13 -10 35q0 35 28 65t86 30z" />
    <glyph glyph-name="uni0626" unicode="&#x626;" horiz-adv-x="864" arabic-form="isolated" 
d="M806 82h-104v282h-55q-37 0 -52 -21t-15 -62v-281h-257q-265 0 -265 252v103h103v-72q0 -91 39 -131t144 -40h132v187q0 87 47.5 133t128.5 46h154v-396zM202 621q49 0 87 -26l-26 -51q-30 18 -63 18q-22 0 -34.5 -11t-12.5 -27q0 -35 41 -35h94v-58h-229v58h37l2 2
q-10 13 -10 35q0 35 28 65t86 30z" />
    <glyph glyph-name="uni0627" unicode="&#x627;" horiz-adv-x="219" arabic-form="isolated" 
d="M58 726h103v-726h-103v726z" />
    <glyph glyph-name="uni0628" unicode="&#x628;" horiz-adv-x="758" arabic-form="isolated" 
d="M597 389h103v-211q0 -88 -45.5 -133t-129.5 -45h-202q-265 0 -265 252v103h103v-72q0 -85 34.5 -128t121.5 -43h208q42 0 57 23t15 63v191zM438 -173h-91v91h91v-91z" />
    <glyph glyph-name="uni0629" unicode="&#x629;" horiz-adv-x="545" arabic-form="isolated" 
d="M279 477q82 0 145 -75.5t63 -189.5q0 -103 -55.5 -160.5t-158.5 -57.5q-113 0 -164 54.5t-51 161.5q0 111 65.5 189t155.5 78zM277 367q-45 0 -77 -44.5t-32 -104.5q0 -58 26 -85t82 -27q54 0 79.5 32t25.5 81q0 63 -33 105.5t-71 42.5zM378 555h-91v91h91v-91zM256 555
h-90v91h90v-91z" />
    <glyph glyph-name="uni062A" unicode="&#x62a;" horiz-adv-x="758" arabic-form="isolated" 
d="M597 389h103v-211q0 -88 -45.5 -133t-129.5 -45h-202q-265 0 -265 252v103h103v-72q0 -85 34.5 -128t121.5 -43h208q42 0 57 23t15 63v191zM494 450h-91v91h91v-91zM372 450h-90v91h90v-91z" />
    <glyph glyph-name="uni062B" unicode="&#x62b;" horiz-adv-x="758" arabic-form="isolated" 
d="M597 389h103v-211q0 -88 -45.5 -133t-129.5 -45h-202q-265 0 -265 252v103h103v-72q0 -85 34.5 -128t121.5 -43h208q42 0 57 23t15 63v191zM494 450h-91v91h91v-91zM372 450h-90v91h90v-91zM433 577h-91v92h91v-92z" />
    <glyph glyph-name="uni062C" unicode="&#x62c;" horiz-adv-x="552" arabic-form="isolated" 
d="M150 331q-7 15 -22 45t-22 45q82 57 176 57q174 0 194 -200q5 -56 8.5 -81t14 -50t28.5 -33v-114h-262q-51 0 -76 -25t-25 -63q0 -82 119 -82q35 0 70 7l15 -102q-41 -12 -104 -12q-94 0 -150 47.5t-56 137.5q0 99 64.5 151.5t159.5 52.5h120l4 6q-15 13 -22 40.5
t-11.5 71.5t-9.5 66q-15 70 -87 70q-64 0 -126 -35zM443 -122h-91v91h91v-91z" />
    <glyph glyph-name="uni062D" unicode="&#x62d;" horiz-adv-x="552" arabic-form="isolated" 
d="M150 331q-7 15 -22 45t-22 45q82 57 176 57q174 0 194 -200q5 -56 8.5 -81t14 -50t28.5 -33v-114h-262q-51 0 -76 -25t-25 -63q0 -82 119 -82q35 0 70 7l15 -102q-41 -12 -104 -12q-94 0 -150 47.5t-56 137.5q0 99 64.5 151.5t159.5 52.5h120l4 6q-15 13 -22 40.5
t-11.5 71.5t-9.5 66q-15 70 -87 70q-64 0 -126 -35z" />
    <glyph glyph-name="uni062E" unicode="&#x62e;" horiz-adv-x="552" arabic-form="isolated" 
d="M150 331q-7 15 -22 45t-22 45q82 57 176 57q174 0 194 -200q5 -56 8.5 -81t14 -50t28.5 -33v-114h-262q-51 0 -76 -25t-25 -63q0 -82 119 -82q35 0 70 7l15 -102q-41 -12 -104 -12q-94 0 -150 47.5t-56 137.5q0 99 64.5 151.5t159.5 52.5h120l4 6q-15 13 -22 40.5
t-11.5 71.5t-9.5 66q-15 70 -87 70q-64 0 -126 -35zM340 555h-91v91h91v-91z" />
    <glyph glyph-name="uni062F" unicode="&#x62f;" horiz-adv-x="507" arabic-form="isolated" 
d="M345 112v156q0 99 -96 99q-74 0 -125 -39l-55 88q74 61 185 61q195 0 195 -184v-293h-391v112h287z" />
    <glyph glyph-name="uni0630" unicode="&#x630;" horiz-adv-x="507" arabic-form="isolated" 
d="M345 112v156q0 99 -96 99q-74 0 -125 -39l-55 88q74 61 185 61q195 0 195 -184v-293h-391v112h287zM286 555h-91v91h91v-91z" />
    <glyph glyph-name="uni0631" unicode="&#x631;" horiz-adv-x="228" arabic-form="isolated" 
d="M-54 -96q66 1 93.5 29t27.5 87v370h103v-379q0 -108 -52 -162t-172 -55v110z" />
    <glyph glyph-name="uni0632" unicode="&#x632;" horiz-adv-x="228" arabic-form="isolated" 
d="M-54 -96q66 1 93.5 29t27.5 87v370h103v-379q0 -108 -52 -162t-172 -55v110zM160 470h-91v91h91v-91z" />
    <glyph glyph-name="uni0633" unicode="&#x633;" horiz-adv-x="1005" arabic-form="isolated" 
d="M629 57h-4q-45 -57 -129 -57h-31v-10q0 -88 -58 -142t-146 -54q-96 0 -149.5 51.5t-53.5 137.5v302h103v-273q0 -46 24.5 -76t76.5 -30q50 0 75 30t25 76v378h103v-278h31q43 0 65 28.5t22 76.5v173h103v-188q0 -49 20 -76t57 -27q39 0 58 28.5t19 75.5q0 59 -26.5 128
t-63.5 109l85 63q43 -50 77.5 -130.5t34.5 -171.5q0 -90 -44 -150.5t-134 -60.5q-94 0 -140 67z" />
    <glyph glyph-name="uni0634" unicode="&#x634;" horiz-adv-x="1005" arabic-form="isolated" 
d="M629 57h-4q-45 -57 -129 -57h-31v-10q0 -88 -58 -142t-146 -54q-96 0 -149.5 51.5t-53.5 137.5v302h103v-273q0 -46 24.5 -76t76.5 -30q50 0 75 30t25 76v378h103v-278h31q43 0 65 28.5t22 76.5v173h103v-188q0 -49 20 -76t57 -27q39 0 58 28.5t19 75.5q0 59 -26.5 128
t-63.5 109l85 63q43 -50 77.5 -130.5t34.5 -171.5q0 -90 -44 -150.5t-134 -60.5q-94 0 -140 67zM733 530h-91v91h91v-91zM611 530h-90v91h90v-91zM672 657h-91v92h91v-92z" />
    <glyph glyph-name="uni0635" unicode="&#x635;" horiz-adv-x="963" arabic-form="isolated" 
d="M264 -95q56 0 80.5 31.5t24.5 80.5v440h102v-88h7q45 50 106 79.5t123 29.5q96 0 147 -50t51 -138v-290h-433v-10q0 -85 -57 -140.5t-152 -55.5q-101 0 -153 53.5t-52 141.5v296h103v-268q0 -112 103 -112zM471 143v-31h330v137q0 115 -113 115q-96 0 -156.5 -68.5
t-60.5 -152.5z" />
    <glyph glyph-name="uni0636" unicode="&#x636;" horiz-adv-x="963" arabic-form="isolated" 
d="M264 -95q56 0 80.5 31.5t24.5 80.5v440h102v-88h7q45 50 106 79.5t123 29.5q96 0 147 -50t51 -138v-290h-433v-10q0 -85 -57 -140.5t-152 -55.5q-101 0 -153 53.5t-52 141.5v296h103v-268q0 -112 103 -112zM471 143v-31h330v137q0 115 -113 115q-96 0 -156.5 -68.5
t-60.5 -152.5zM715 555h-91v91h91v-91z" />
    <glyph glyph-name="uni0637" unicode="&#x637;" horiz-adv-x="771" arabic-form="isolated" 
d="M50 0v112h126v614h103v-357h6q46 50 107 79.5t123 29.5q96 0 147 -50t51 -138v-290h-663zM279 143v-31h330v137q0 115 -114 115q-96 0 -156 -68.5t-60 -152.5z" />
    <glyph glyph-name="uni0638" unicode="&#x638;" horiz-adv-x="771" arabic-form="isolated" 
d="M50 0v112h126v614h103v-357h6q46 50 107 79.5t123 29.5q96 0 147 -50t51 -138v-290h-663zM279 143v-31h330v137q0 115 -114 115q-96 0 -156 -68.5t-60 -152.5zM555 555h-91v91h91v-91z" />
    <glyph glyph-name="uni0639" unicode="&#x639;" horiz-adv-x="541" arabic-form="isolated" 
d="M480 430l-53 -96q-44 30 -105 30q-55 0 -89 -32t-34 -95q0 -51 30.5 -88t100.5 -37h153v-112h-218q-46 0 -72.5 -25t-26.5 -61q0 -84 120 -84q54 0 112 15l23 -103q-65 -20 -146 -20q-103 0 -160 46t-57 134q0 62 30 107.5t77 66.5v5q-76 44 -76 161q0 104 62.5 170
t170.5 66q92 0 158 -48z" />
    <glyph glyph-name="uni063A" unicode="&#x63a;" horiz-adv-x="541" arabic-form="isolated" 
d="M480 430l-53 -96q-44 30 -105 30q-55 0 -89 -32t-34 -95q0 -51 30.5 -88t100.5 -37h153v-112h-218q-46 0 -72.5 -25t-26.5 -61q0 -84 120 -84q54 0 112 15l23 -103q-65 -20 -146 -20q-103 0 -160 46t-57 134q0 62 30 107.5t77 66.5v5q-76 44 -76 161q0 104 62.5 170
t170.5 66q92 0 158 -48zM344 555h-91v91h91v-91z" />
    <glyph glyph-name="uni0641" unicode="&#x641;" horiz-adv-x="854" arabic-form="isolated" 
d="M164 283q0 -84 34 -127.5t119 -43.5h71q46 0 70 -4v3l1 2q-81 36 -81 156q0 90 56 149.5t151 59.5q104 0 157.5 -62t53.5 -175q0 -119 -60.5 -180t-165.5 -61h-241q-200 0 -252 144q-19 53 -19 175v36h106v-72zM587 367q-51 0 -77 -33t-26 -78q0 -56 42.5 -90t112.5 -42
q51 35 51 124q0 56 -25.5 87.5t-77.5 31.5zM630 555h-91v91h91v-91z" />
    <glyph glyph-name="uni0642" unicode="&#x642;" horiz-adv-x="727" arabic-form="isolated" 
d="M669 242v-183q0 -136 -75.5 -208.5t-223.5 -72.5q-312 0 -312 291v216h103v-151q0 -45 2.5 -74t14.5 -64.5t33.5 -56t62 -35t97.5 -14.5q184 0 188 138q-6 3 -7 4q-39 -30 -98 -30q-101 0 -155.5 58.5t-54.5 173.5q0 114 58 179t163 65q96 0 150 -60t54 -176zM460 365
q-53 0 -82 -35t-29 -95q0 -57 27 -91t78 -34q109 0 109 132q0 60 -28 91.5t-75 31.5zM563 555h-91v91h91v-91zM441 555h-90v91h90v-91z" />
    <glyph glyph-name="uni0643" unicode="&#x643;" horiz-adv-x="768" arabic-form="isolated" 
d="M608 726h102v-548q0 -88 -45.5 -133t-129.5 -45h-204q-142 0 -207.5 67t-65.5 185v103h103v-72q0 -87 35 -129t129 -42h210q42 0 57.5 23t15.5 63v528zM414 496q49 0 87 -26l-26 -51q-30 18 -63 18q-22 0 -34.5 -11t-12.5 -27q0 -35 41 -35h94v-58h-229v58h37l2 2
q-10 13 -10 35q0 35 28 65t86 30z" />
    <glyph glyph-name="uni0644" unicode="&#x644;" horiz-adv-x="530" arabic-form="isolated" 
d="M472 726v-729q0 -89 -56 -146t-153 -57q-100 0 -152.5 54t-52.5 142v295h103v-266q0 -49 24 -81.5t79 -32.5q105 0 105 114v707h103z" />
    <glyph glyph-name="uni0645" unicode="&#x645;" horiz-adv-x="742" arabic-form="isolated" 
d="M161 -272h-103v190q0 100 50.5 147t156.5 47v129q0 115 55.5 176t152.5 61q105 0 158 -64t53 -182q0 -128 -62 -180t-187 -52h-177q-53 0 -75 -21.5t-22 -63.5v-187zM368 233v-124h103q108 0 108 124q0 132 -105 132q-106 0 -106 -132z" />
    <glyph glyph-name="uni0646" unicode="&#x646;" horiz-adv-x="530" arabic-form="isolated" 
d="M472 390v-393q0 -89 -56 -146t-153 -57q-100 0 -152.5 54t-52.5 142v295h103v-266q0 -49 24 -81.5t79 -32.5q105 0 105 114v371h103zM312 450h-91v91h91v-91z" />
    <glyph glyph-name="uni0648" unicode="&#x648;" horiz-adv-x="541" arabic-form="isolated" 
d="M483 242v-225q0 -118 -61.5 -178.5t-174.5 -60.5h-146v113h140q131 0 131 114v23q-4 2 -6 4q-39 -30 -98 -30q-101 0 -155.5 58.5t-54.5 173.5q0 114 58 179t163 65q96 0 150 -60t54 -176zM274 365q-53 0 -81.5 -35t-28.5 -95q0 -57 26.5 -91t77.5 -34q109 0 109 132
q0 60 -28 91.5t-75 31.5z" />
    <glyph glyph-name="uni0649" unicode="&#x649;" horiz-adv-x="864" arabic-form="isolated" 
d="M806 82h-104v282h-55q-37 0 -52 -21t-15 -62v-281h-257q-265 0 -265 252v103h103v-72q0 -91 39 -131t144 -40h132v187q0 87 47.5 133t128.5 46h154v-396z" />
    <glyph glyph-name="uni064A" unicode="&#x64a;" horiz-adv-x="864" arabic-form="isolated" 
d="M806 82h-104v282h-55q-37 0 -52 -21t-15 -62v-281h-257q-265 0 -265 252v103h103v-72q0 -91 39 -131t144 -40h132v187q0 87 47.5 133t128.5 46h154v-396zM496 -173h-91v91h91v-91zM374 -173h-90v91h90v-91z" />
    <glyph glyph-name="uni066E.init" unicode="&#x66e;" horiz-adv-x="229" 
d="M68 455h103v-252q0 -203 -171 -203q-24 0 -40.5 15.5t-16.5 39.5t16.5 40t40.5 17q41 1 54.5 25t13.5 74v244z" />
    <glyph glyph-name="uni066E.medi" unicode="&#x66e;" horiz-adv-x="249" 
d="M-57 55q0 21 16 39t41 18q37 0 54 21.5t17 70.5v186h103v-192q0 -44 16.5 -64.5t58.5 -21.5v-112q-92 0 -121 56q-40 -56 -128 -56q-24 0 -40.5 15.5t-16.5 39.5z" />
    <glyph glyph-name="uni066E.fina" unicode="&#x66e;" horiz-adv-x="778" 
d="M600 389h103v-191q0 -43 16 -64t59 -22v-112q-93 0 -122 56q-25 -33 -54 -44.5t-76 -11.5h-202q-264 0 -264 252v103h103v-72q0 -86 33.5 -128.5t121.5 -42.5h207q44 0 59.5 22.5t15.5 64.5v190z" />
    <glyph glyph-name="uni066F.init" unicode="&#x66f;" horiz-adv-x="535" 
d="M251 0h-251q-24 0 -40 15.5t-16 40.5q0 24 15.5 40t40.5 16h75q38 0 62 -4q0 1 1 3v2q-80 41 -80 150q0 95 56 155t152 60q104 0 157.5 -62t53.5 -175q0 -119 -60.5 -180t-165.5 -61zM371 248q0 56 -25.5 87.5t-76.5 31.5q-52 0 -78 -33t-26 -78q0 -56 42.5 -89.5
t112.5 -41.5q51 35 51 123z" />
    <glyph glyph-name="uni066F.medi" unicode="&#x66f;" horiz-adv-x="539" 
d="M-56 56q0 24 15.5 40t40.5 16h67q43 0 58 -3q0 1 0.5 3t0.5 3q-31 22 -49.5 64t-18.5 87q0 94 56 153t153 59q101 0 157.5 -60.5t56.5 -161.5q0 -37 -12.5 -75.5t-32.5 -62.5q0 -2 2 -6h101v-112h-539q-24 0 -40 15.5t-16 40.5zM269 368q-50 0 -77 -30.5t-27 -74.5
q0 -55 38.5 -95t105.5 -53q66 43 66 133q0 54 -28.5 87t-77.5 33z" />
    <glyph glyph-name="uni066F.fina" unicode="&#x66f;" horiz-adv-x="723" 
d="M563 112v120q0 133 -100 133q-53 0 -83.5 -34t-30.5 -100q0 -119 113 -119h101zM669 243v-131h54v-112h-59q-12 -102 -87 -162t-207 -60q-89 0 -152 24t-96.5 66.5t-48.5 91.5t-15 109v216h103v-185q0 -46 9 -81t30.5 -65.5t64.5 -47t106 -16.5q73 0 122.5 28t58.5 85
h-81q-227 0 -227 229q0 116 58 181t165 65q95 0 148.5 -60t53.5 -175z" />
    <glyph glyph-name="uni0671" unicode="&#x671;" horiz-adv-x="219" arabic-form="isolated" 
d="M58 676h103v-676h-103v676zM174 854q-24 0 -40 -16.5t-16 -40.5h91v24q0 15 -10 24t-25 9zM268 740h-218q-42 0 -59 34q-7 -6 -20 -18.5t-17 -16.5h-4v68l46 46h8q17 -55 46 -55h8v113h60v-31h3q31 31 73 31q31 0 52.5 -18t21.5 -52v-101z" />
    <glyph glyph-name="uni0672.fina" unicode="&#x672;" horiz-adv-x="231" 
d="M231 0h-34q-69 0 -103 31.5t-34 109.5v535h103v-505q0 -32 12 -45.5t43 -13.5h13v-112zM262 740h-206q-32 0 -54 34l-35 -35h-4v68q22 24 46 46h8q12 -55 45 -55h12l2 2q-9 13 -9 35q0 36 27 65.5t85 29.5q49 0 89 -28l-26 -50q-31 19 -66 19q-22 0 -34.5 -11t-12.5 -27
q0 -19 12 -27t39 -8h82v-58z" />
    <glyph glyph-name="uni0673.fina" unicode="&#x673;" horiz-adv-x="231" 
d="M231 0h-34q-69 0 -103 31.5t-34 109.5v585h103v-555q0 -32 12 -45.5t43 -13.5h13v-112zM262 -272h-206q-32 0 -54 34l-35 -35h-4v68q22 24 46 46h8q12 -55 45 -55h12l2 2q-9 14 -9 35q0 36 27 65.5t85 29.5q49 0 89 -28l-26 -50q-31 19 -66 19q-22 0 -34.5 -11t-12.5 -27
q0 -19 12 -27t39 -8h82v-58z" />
    <glyph glyph-name="uni0675.fina" unicode="&#x675;" horiz-adv-x="231" 
d="M231 0h-34q-69 0 -103 31.5t-34 109.5v535h103v-505q0 -32 12 -45.5t43 -13.5h13v-112zM192 930q49 0 87 -26l-26 -51q-30 18 -63 18q-22 0 -34.5 -11t-12.5 -27q0 -35 41 -35h94v-58h-229v58h37l2 2q-10 13 -10 35q0 35 28 65t86 30z" />
    <glyph glyph-name="uni0676.fina" unicode="&#x676;" horiz-adv-x="541" 
d="M280 478q97 0 150 -59.5t53 -175.5v-131h58v-112h-58q-3 -106 -63 -164t-167 -58h-152v113h149q64 0 93.5 34.5t29.5 77.5h-89q-226 0 -226 229q0 116 57.5 181t164.5 65zM377 112v120q0 133 -101 133q-52 0 -82.5 -34t-30.5 -100q0 -119 112 -119h102zM389 745
q49 0 87 -26l-26 -51q-30 18 -63 18q-22 0 -34.5 -11t-12.5 -27q0 -35 41 -35h94v-58h-229v58h37l2 2q-10 13 -10 35q0 35 28 65t86 30z" />
    <glyph glyph-name="uni0677" unicode="&#x677;" horiz-adv-x="541" arabic-form="isolated" 
d="M483 242v-225q0 -118 -61.5 -178.5t-174.5 -60.5h-146v113h140q131 0 131 114v23q-4 2 -6 4q-39 -30 -98 -30q-101 0 -155.5 58.5t-54.5 173.5q0 114 58 179t163 65q96 0 150 -60t54 -176zM274 365q-53 0 -81.5 -35t-28.5 -95q0 -57 26.5 -91t77.5 -34q109 0 109 132
q0 60 -28 91.5t-75 31.5zM409 745q49 0 87 -26l-26 -51q-30 18 -63 18q-22 0 -34.5 -11t-12.5 -27q0 -35 41 -35h94v-58h-229v58h37l2 2q-10 13 -10 35q0 35 28 65t86 30zM127 638l1 3q-22 16 -22 47q0 27 19 48t50 21q35 0 55.5 -23t20.5 -55q0 -28 -17.5 -51.5
t-51.5 -33.5l-145 -40v57z" />
    <glyph glyph-name="uni0678.init" unicode="&#x678;" horiz-adv-x="229" 
d="M68 455h103v-252q0 -203 -171 -203q-24 0 -40.5 15.5t-16.5 39.5t16.5 40t40.5 17q41 1 54.5 25t13.5 74v244zM142 720q49 0 87 -26l-26 -51q-30 18 -63 18q-22 0 -34.5 -11t-12.5 -27q0 -35 41 -35h94v-58h-229v58h37l2 2q-10 13 -10 35q0 35 28 65t86 30z" />
    <glyph glyph-name="uni0678.medi" unicode="&#x678;" horiz-adv-x="249" 
d="M-57 55q0 21 16 39t41 18q37 0 54 21.5t17 70.5v186h103v-192q0 -44 16.5 -64.5t58.5 -21.5v-112q-92 0 -121 56q-40 -56 -128 -56q-24 0 -40.5 15.5t-16.5 39.5zM152 660q49 0 87 -26l-26 -51q-30 18 -63 18q-22 0 -34.5 -11t-12.5 -27q0 -35 41 -35h94v-58h-229v58h37
l2 2q-10 13 -10 35q0 35 28 65t86 30z" />
    <glyph glyph-name="uni0678.fina" unicode="&#x678;" horiz-adv-x="864" 
d="M580 0h-257q-265 0 -265 252v103h103v-72q0 -85 34.5 -128t121.5 -43h159v187q0 87 47.5 133t128.5 46h154v-366h58v-112h-162v364h-55q-37 0 -52 -21t-15 -62v-281zM708 745q49 0 87 -26l-26 -51q-30 18 -63 18q-22 0 -34.5 -11t-12.5 -27q0 -35 41 -35h94v-58h-229v58
h37l2 2q-10 13 -10 35q0 35 28 65t86 30z" />
    <glyph glyph-name="uni0679" unicode="&#x679;" horiz-adv-x="758" arabic-form="isolated" 
d="M597 389h103v-211q0 -88 -45.5 -133t-129.5 -45h-202q-265 0 -265 252v103h103v-72q0 -85 34.5 -128t121.5 -43h208q42 0 57 23t15 63v191zM415 560q-22 0 -38 -14.5t-22 -38.5h95v15q0 38 -35 38zM509 450h-252v58h37v137h61v-59h1l2 -1q30 32 76 32q32 0 53.5 -18
t21.5 -52v-97z" />
    <glyph glyph-name="uni067A" unicode="&#x67a;" horiz-adv-x="758" arabic-form="isolated" 
d="M597 389h103v-211q0 -88 -45.5 -133t-129.5 -45h-202q-265 0 -265 252v103h103v-72q0 -85 34.5 -128t121.5 -43h208q42 0 57 23t15 63v191zM433 450h-91v91h91v-91zM433 577h-91v92h91v-92z" />
    <glyph glyph-name="uni067B" unicode="&#x67b;" horiz-adv-x="758" arabic-form="isolated" 
d="M597 389h103v-211q0 -88 -45.5 -133t-129.5 -45h-202q-265 0 -265 252v103h103v-72q0 -85 34.5 -128t121.5 -43h208q42 0 57 23t15 63v191zM434 -301h-91v91h91v-91zM434 -174h-91v92h91v-92z" />
    <glyph glyph-name="uni067C.init" unicode="&#x67c;" horiz-adv-x="229" 
d="M8 -20q0 8 2 20h-10q-24 0 -40.5 15.5t-16.5 39.5t16.5 40t40.5 17q41 1 54.5 25t13.5 74v244h103v-252q0 -98 -38 -147q45 -25 45 -76q0 -35 -23.5 -60t-61.5 -25q-36 0 -60.5 25.5t-24.5 59.5zM220 530h-91v91h91v-91zM98 530h-90v91h90v-91zM58 -20q0 -14 9.5 -25
t25.5 -11q17 0 26.5 10.5t9.5 25.5t-10 25.5t-26 10.5q-15 0 -25 -10.5t-10 -25.5z" />
    <glyph glyph-name="uni067C.medi" unicode="&#x67c;" horiz-adv-x="249" 
d="M39 -2v4q-12 -2 -39 -2q-24 0 -40.5 15.5t-16.5 39.5q0 21 16 39t41 18q37 0 54 21.5t17 70.5v186h103v-192q0 -44 16.5 -64.5t58.5 -21.5v-112q-22 0 -40 3v-5q0 -35 -23.5 -60t-61.5 -25q-36 0 -60.5 25.5t-24.5 59.5zM230 470h-91v91h91v-91zM108 470h-90v91h90v-91z
M89 -2q0 -14 9.5 -25t25.5 -11q17 0 26.5 10.5t9.5 25.5t-10 25.5t-26 10.5q-15 0 -25 -10.5t-10 -25.5z" />
    <glyph glyph-name="uni067C.fina" unicode="&#x67c;" horiz-adv-x="778" 
d="M342 -20q0 8 2 20h-20q-264 0 -264 252v103h103v-72q0 -86 33.5 -128.5t121.5 -42.5h207q44 0 59.5 22.5t15.5 64.5v190h103v-191q0 -43 16 -64t59 -22v-112q-93 0 -122 56q-25 -33 -54 -44.5t-76 -11.5h-17q3 -9 3 -20q0 -35 -23.5 -60t-61.5 -25q-36 0 -60.5 25.5
t-24.5 59.5zM514 450h-91v91h91v-91zM392 450h-90v91h90v-91zM392 -20q0 -14 9.5 -25t25.5 -11q17 0 26.5 10.5t9.5 25.5q0 12 -6 20h-60q-5 -8 -5 -20z" />
    <glyph glyph-name="uni067D.init" unicode="&#x67d;" horiz-adv-x="229" 
d="M68 455h103v-252q0 -203 -171 -203q-24 0 -40.5 15.5t-16.5 39.5t16.5 40t40.5 17q41 1 54.5 25t13.5 74v244zM129 748h91v-91h-91v91zM8 748h90v-91h-90v91zM68 620h91v-90h-91v90z" />
    <glyph glyph-name="uni067D.medi" unicode="&#x67d;" horiz-adv-x="249" 
d="M-57 55q0 21 16 39t41 18q37 0 54 21.5t17 70.5v186h103v-192q0 -44 16.5 -64.5t58.5 -21.5v-112q-92 0 -121 56q-40 -56 -128 -56q-24 0 -40.5 15.5t-16.5 39.5zM139 688h91v-91h-91v91zM18 688h90v-91h-90v91zM78 560h91v-90h-91v90z" />
    <glyph glyph-name="uni067D.fina" unicode="&#x67d;" horiz-adv-x="778" 
d="M600 389h103v-191q0 -43 16 -64t59 -22v-112q-93 0 -122 56q-25 -33 -54 -44.5t-76 -11.5h-202q-264 0 -264 252v103h103v-72q0 -86 33.5 -128.5t121.5 -42.5h207q44 0 59.5 22.5t15.5 64.5v190zM423 668h91v-91h-91v91zM302 668h90v-91h-90v91zM362 540h91v-90h-91v90z
" />
    <glyph glyph-name="uni067E" unicode="&#x67e;" horiz-adv-x="758" arabic-form="isolated" 
d="M597 389h103v-211q0 -88 -45.5 -133t-129.5 -45h-202q-265 0 -265 252v103h103v-72q0 -85 34.5 -128t121.5 -43h208q42 0 57 23t15 63v191zM403 -82h91v-91h-91v91zM282 -82h90v-91h-90v91zM342 -210h91v-90h-91v90z" />
    <glyph glyph-name="uni067F" unicode="&#x67f;" horiz-adv-x="758" arabic-form="isolated" 
d="M597 389h103v-211q0 -88 -45.5 -133t-129.5 -45h-202q-265 0 -265 252v103h103v-72q0 -85 34.5 -128t121.5 -43h208q42 0 57 23t15 63v191zM494 450h-91v91h91v-91zM372 450h-90v91h90v-91zM494 577h-91v92h91v-92zM372 577h-90v92h90v-92z" />
    <glyph glyph-name="uni0680" unicode="&#x680;" horiz-adv-x="758" arabic-form="isolated" 
d="M597 389h103v-211q0 -88 -45.5 -133t-129.5 -45h-202q-265 0 -265 252v103h103v-72q0 -85 34.5 -128t121.5 -43h208q42 0 57 23t15 63v191zM494 -301h-91v91h91v-91zM372 -301h-90v91h90v-91zM494 -174h-91v92h91v-92zM372 -174h-90v92h90v-92z" />
    <glyph glyph-name="uni0681.init" unicode="&#x681;" horiz-adv-x="505" 
d="M0 0q-24 0 -40 15.5t-16 40.5q0 24 16 40t40 16h355l3 6q-15 13 -21.5 40.5t-11 71t-9.5 66.5q-15 70 -88 70q-65 0 -125 -35l-45 90q83 57 176 57q172 0 193 -185q2 -13 4.5 -37.5t4 -35.5t4 -29.5t6 -28t8 -20.5t11 -17.5t15.5 -10.5v-114h-480zM274 745q49 0 87 -26
l-26 -51q-30 18 -63 18q-22 0 -34.5 -11t-12.5 -27q0 -35 41 -35h94v-58h-229v58h37l2 2q-10 13 -10 35q0 35 28 65t86 30z" />
    <glyph glyph-name="uni0681.medi" unicode="&#x681;" horiz-adv-x="508" 
d="M234 478q174 0 194 -201q11 -106 26 -135q16 -30 47 -30h7v-112h-508q-24 0 -40 15.5t-16 40.5q0 24 16 40t40 16h354l4 6q-11 10 -18 29t-9 35t-5.5 49t-5.5 48q-11 87 -92 87q-64 0 -126 -35q-7 15 -22 45t-22 45q82 57 176 57zM274 745q49 0 87 -26l-26 -51
q-30 18 -63 18q-22 0 -34.5 -11t-12.5 -27q0 -35 41 -35h94v-58h-229v58h37l2 2q-10 13 -10 35q0 35 28 65t86 30z" />
    <glyph glyph-name="uni0681.fina" unicode="&#x681;" horiz-adv-x="558" 
d="M404 112l4 6q-11 10 -18 29t-9 35t-5.5 49t-5.5 48q-11 87 -92 87q-64 0 -126 -35q-7 15 -22 45t-22 45q82 57 176 57q174 0 194 -201q11 -106 26 -135q16 -30 47 -30h7v-112h-293q-51 0 -76 -25t-25 -63q0 -82 119 -82q35 0 70 7l15 -102q-41 -12 -104 -12
q-95 0 -150.5 47.5t-55.5 137.5q0 99 64.5 151.5t159.5 52.5h122zM274 745q49 0 87 -26l-26 -51q-30 18 -63 18q-22 0 -34.5 -11t-12.5 -27q0 -35 41 -35h94v-58h-229v58h37l2 2q-10 13 -10 35q0 35 28 65t86 30z" />
    <glyph glyph-name="uni0682.init" unicode="&#x682;" horiz-adv-x="505" 
d="M0 0q-24 0 -40 15.5t-16 40.5q0 24 16 40t40 16h355l3 6q-15 13 -21.5 40.5t-11 71t-9.5 66.5q-15 70 -88 70q-65 0 -125 -35l-45 90q83 57 176 57q172 0 193 -185q2 -13 4.5 -37.5t4 -35.5t4 -29.5t6 -28t8 -20.5t11 -17.5t15.5 -10.5v-114h-480zM298 555h-91v91h91v-91
zM298 682h-91v92h91v-92z" />
    <glyph glyph-name="uni0682.medi" unicode="&#x682;" horiz-adv-x="508" 
d="M234 478q174 0 194 -201q11 -106 26 -135q16 -30 47 -30h7v-112h-508q-24 0 -40 15.5t-16 40.5q0 24 16 40t40 16h354l4 6q-11 10 -18 29t-9 35t-5.5 49t-5.5 48q-11 87 -92 87q-64 0 -126 -35q-7 15 -22 45t-22 45q82 57 176 57zM300 555h-91v91h91v-91zM300 682h-91v92
h91v-92z" />
    <glyph glyph-name="uni0682.fina" unicode="&#x682;" horiz-adv-x="558" 
d="M404 112l4 6q-11 10 -18 29t-9 35t-5.5 49t-5.5 48q-11 87 -92 87q-64 0 -126 -35q-7 15 -22 45t-22 45q82 57 176 57q174 0 194 -201q11 -106 26 -135q16 -30 47 -30h7v-112h-293q-51 0 -76 -25t-25 -63q0 -82 119 -82q35 0 70 7l15 -102q-41 -12 -104 -12
q-95 0 -150.5 47.5t-55.5 137.5q0 99 64.5 151.5t159.5 52.5h122zM330 555h-91v91h91v-91zM330 682h-91v92h91v-92z" />
    <glyph glyph-name="uni0683" unicode="&#x683;" horiz-adv-x="552" arabic-form="isolated" 
d="M150 331q-7 15 -22 45t-22 45q82 57 176 57q174 0 194 -200q5 -56 8.5 -81t14 -50t28.5 -33v-114h-262q-51 0 -76 -25t-25 -63q0 -82 119 -82q35 0 70 7l15 -102q-41 -12 -104 -12q-94 0 -150 47.5t-56 137.5q0 99 64.5 151.5t159.5 52.5h120l4 6q-15 13 -22 40.5
t-11.5 71.5t-9.5 66q-15 70 -87 70q-64 0 -126 -35zM475 -115h-61v64h61v-64zM398 -115h-62v64h62v-64z" />
    <glyph glyph-name="uni0684" unicode="&#x684;" horiz-adv-x="552" arabic-form="isolated" 
d="M150 331q-7 15 -22 45t-22 45q82 57 176 57q174 0 194 -200q5 -56 8.5 -81t14 -50t28.5 -33v-114h-262q-51 0 -76 -25t-25 -63q0 -82 119 -82q35 0 70 7l15 -102q-41 -12 -104 -12q-94 0 -150 47.5t-56 137.5q0 99 64.5 151.5t159.5 52.5h120l4 6q-15 13 -22 40.5
t-11.5 71.5t-9.5 66q-15 70 -87 70q-64 0 -126 -35zM465 -201h-61v64h61v-64zM465 -120h-61v66h61v-66z" />
    <glyph glyph-name="uni0685.init" unicode="&#x685;" horiz-adv-x="505" 
d="M0 0q-24 0 -40 15.5t-16 40.5q0 24 16 40t40 16h355l3 6q-15 13 -21.5 40.5t-11 71t-9.5 66.5q-15 70 -88 70q-65 0 -125 -35l-45 90q83 57 176 57q172 0 193 -185q2 -13 4.5 -37.5t4 -35.5t4 -29.5t6 -28t8 -20.5t11 -17.5t15.5 -10.5v-114h-480zM356 555h-91v91h91v-91
zM234 555h-90v91h90v-91zM295 682h-91v92h91v-92z" />
    <glyph glyph-name="uni0685.medi" unicode="&#x685;" horiz-adv-x="508" 
d="M234 478q174 0 194 -201q11 -106 26 -135q16 -30 47 -30h7v-112h-508q-24 0 -40 15.5t-16 40.5q0 24 16 40t40 16h354l4 6q-11 10 -18 29t-9 35t-5.5 49t-5.5 48q-11 87 -92 87q-64 0 -126 -35q-7 15 -22 45t-22 45q82 57 176 57zM356 555h-91v91h91v-91zM234 555h-90v91
h90v-91zM295 682h-91v92h91v-92z" />
    <glyph glyph-name="uni0685.fina" unicode="&#x685;" horiz-adv-x="558" 
d="M404 112l4 6q-11 10 -18 29t-9 35t-5.5 49t-5.5 48q-11 87 -92 87q-64 0 -126 -35q-7 15 -22 45t-22 45q82 57 176 57q174 0 194 -201q11 -106 26 -135q16 -30 47 -30h7v-112h-293q-51 0 -76 -25t-25 -63q0 -82 119 -82q35 0 70 7l15 -102q-41 -12 -104 -12
q-95 0 -150.5 47.5t-55.5 137.5q0 99 64.5 151.5t159.5 52.5h122zM391 555h-91v91h91v-91zM269 555h-90v91h90v-91zM330 682h-91v92h91v-92z" />
    <glyph glyph-name="uni0686" unicode="&#x686;" horiz-adv-x="552" arabic-form="isolated" 
d="M150 331q-7 15 -22 45t-22 45q82 57 176 57q174 0 194 -200q5 -56 8.5 -81t14 -50t28.5 -33v-114h-262q-51 0 -76 -25t-25 -63q0 -82 119 -82q35 0 70 7l15 -102q-41 -12 -104 -12q-94 0 -150 47.5t-56 137.5q0 99 64.5 151.5t159.5 52.5h120l4 6q-15 13 -22 40.5
t-11.5 71.5t-9.5 66q-15 70 -87 70q-64 0 -126 -35zM439 -66h61v-65h-61v65zM361 -66h62v-65h-62v65zM400 -148h61v-65h-61v65z" />
    <glyph glyph-name="uni0687" unicode="&#x687;" horiz-adv-x="552" arabic-form="isolated" 
d="M150 331q-7 15 -22 45t-22 45q82 57 176 57q174 0 194 -200q5 -56 8.5 -81t14 -50t28.5 -33v-114h-262q-51 0 -76 -25t-25 -63q0 -82 119 -82q35 0 70 7l15 -102q-41 -12 -104 -12q-94 0 -150 47.5t-56 137.5q0 99 64.5 151.5t159.5 52.5h120l4 6q-15 13 -22 40.5
t-11.5 71.5t-9.5 66q-15 70 -87 70q-64 0 -126 -35zM511 -180h-61v64h61v-64zM434 -180h-62v64h62v-64zM511 -99h-61v66h61v-66zM434 -99h-62v66h62v-66z" />
    <glyph glyph-name="uni0688" unicode="&#x688;" horiz-adv-x="507" arabic-form="isolated" 
d="M345 112v156q0 99 -96 99q-74 0 -125 -39l-55 88q74 61 185 61q195 0 195 -184v-293h-391v112h287zM280 665q-22 0 -38 -14.5t-22 -38.5h95v15q0 38 -35 38zM374 555h-252v58h37v137h61v-59l1 -1h2q30 32 76 32q32 0 53.5 -18t21.5 -52v-97z" />
    <glyph glyph-name="uni0689.fina" unicode="&#x689;" horiz-adv-x="506" 
d="M159 -18q0 12 2 18h-103v112h287v156q0 99 -96 99q-74 0 -125 -39l-55 88q74 61 185 61q195 0 195 -184v-181h57v-112h-179q2 -12 2 -18q0 -35 -23.5 -60t-61.5 -25q-36 0 -60.5 25.5t-24.5 59.5zM209 -18q0 -14 9.5 -25t25.5 -11q17 0 26.5 10.5t9.5 25.5q0 10 -5 18
h-62q-4 -7 -4 -18z" />
    <glyph glyph-name="uni068A.fina" unicode="&#x68a;" horiz-adv-x="506" 
d="M345 112v156q0 99 -96 99q-74 0 -125 -39l-55 88q74 61 185 61q195 0 195 -184v-181h57v-112h-448v112h287zM290 -173h-91v91h91v-91z" />
    <glyph glyph-name="uni068B.fina" unicode="&#x68b;" horiz-adv-x="506" 
d="M345 112v156q0 99 -96 99q-74 0 -125 -39l-55 88q74 61 185 61q195 0 195 -184v-181h57v-112h-448v112h287zM290 -173h-91v91h91v-91zM280 665q-22 0 -38 -14.5t-22 -38.5h95v15q0 38 -35 38zM374 555h-252v58h37v137h61v-59l1 -1h2q30 32 76 32q32 0 53.5 -18t21.5 -52
v-97z" />
    <glyph glyph-name="uni068C" unicode="&#x68c;" horiz-adv-x="507" arabic-form="isolated" 
d="M345 112v156q0 99 -96 99q-74 0 -125 -39l-55 88q74 61 185 61q195 0 195 -184v-293h-391v112h287zM351 555h-91v91h91v-91zM229 555h-90v91h90v-91z" />
    <glyph glyph-name="uni068D" unicode="&#x68d;" horiz-adv-x="507" arabic-form="isolated" 
d="M345 112v156q0 99 -96 99q-74 0 -125 -39l-55 88q74 61 185 61q195 0 195 -184v-293h-391v112h287zM351 -173h-91v91h91v-91zM229 -173h-90v91h90v-91z" />
    <glyph glyph-name="uni068E" unicode="&#x68e;" horiz-adv-x="507" arabic-form="isolated" 
d="M345 112v156q0 99 -96 99q-74 0 -125 -39l-55 88q74 61 185 61q195 0 195 -184v-293h-391v112h287zM351 555h-91v91h91v-91zM229 555h-90v91h90v-91zM290 682h-91v92h91v-92z" />
    <glyph glyph-name="uni068F.fina" unicode="&#x68f;" horiz-adv-x="506" 
d="M345 112v156q0 99 -96 99q-74 0 -125 -39l-55 88q74 61 185 61q195 0 195 -184v-181h57v-112h-448v112h287zM260 773h91v-91h-91v91zM139 773h90v-91h-90v91zM199 645h91v-90h-91v90z" />
    <glyph glyph-name="uni0690.fina" unicode="&#x690;" horiz-adv-x="506" 
d="M345 112v156q0 99 -96 99q-74 0 -125 -39l-55 88q74 61 185 61q195 0 195 -184v-181h57v-112h-448v112h287zM351 555h-91v91h91v-91zM229 555h-90v91h90v-91zM351 682h-91v92h91v-92zM229 682h-90v92h90v-92z" />
    <glyph glyph-name="uni0691" unicode="&#x691;" horiz-adv-x="228" arabic-form="isolated" 
d="M-54 -96q66 1 93.5 29t27.5 87v370h103v-379q0 -108 -52 -162t-172 -55v110zM146 580q-22 0 -38 -14.5t-22 -38.5h95v15q0 38 -35 38zM240 470h-252v58h37v137h61v-59h1q1 -1 2 -1q30 32 76 32q32 0 53.5 -18t21.5 -52v-97z" />
    <glyph glyph-name="uni0692.fina" unicode="&#x692;" horiz-adv-x="228" 
d="M-54 -96q66 1 93.5 29t27.5 85v372h103v-278h58v-112h-58q-2 -103 -55 -154t-169 -52v110zM86 470l-86 172l42 21l71 -121l74 121l42 -22l-85 -171h-58z" />
    <glyph glyph-name="uni0693.fina" unicode="&#x693;" horiz-adv-x="228" 
d="M-54 -96q66 1 93.5 29t27.5 85v372h103v-278h58v-112h-58q-1 -72 -28 -119q41 -25 41 -74q0 -35 -23.5 -60t-61.5 -25q-34 0 -58 23t-27 55q-30 -5 -67 -6v110zM63 -193q0 -14 9.5 -25t25.5 -11q17 0 26.5 10.5t9.5 25.5q0 27 -25 35q-22 -19 -46 -28v-7z" />
    <glyph glyph-name="uni0694.fina" unicode="&#x694;" horiz-adv-x="228" 
d="M-54 -96q66 1 93.5 29t27.5 85v372h103v-278h58v-112h-58q-2 -103 -55 -154t-169 -52v110zM148 -350h-91v91h91v-91z" />
    <glyph glyph-name="uni0695.fina" unicode="&#x695;" horiz-adv-x="228" 
d="M-54 -96q66 1 93.5 29t27.5 85v372h103v-278h58v-112h-58q-2 -103 -55 -154t-169 -52v110zM86 -452l-86 172l42 21l71 -121l74 121l42 -22l-85 -171h-58z" />
    <glyph glyph-name="uni0696.fina" unicode="&#x696;" horiz-adv-x="228" 
d="M-54 -96q66 1 93.5 29t27.5 85v372h103v-278h58v-112h-58q-2 -103 -55 -154t-169 -52v110zM148 -310h-91v91h91v-91zM37 -20h-91v91h91v-91z" />
    <glyph glyph-name="uni0697.fina" unicode="&#x697;" horiz-adv-x="228" 
d="M-54 -96q66 1 93.5 29t27.5 85v372h103v-278h58v-112h-58q-2 -103 -55 -154t-169 -52v110zM220 470h-91v91h91v-91zM98 470h-90v91h90v-91z" />
    <glyph glyph-name="uni0698" unicode="&#x698;" horiz-adv-x="228" arabic-form="isolated" 
d="M-54 -96q66 1 93.5 29t27.5 87v370h103v-379q0 -108 -52 -162t-172 -55v110zM220 470h-91v91h91v-91zM98 470h-90v91h90v-91zM159 597h-91v92h91v-92z" />
    <glyph glyph-name="uni0699.fina" unicode="&#x699;" horiz-adv-x="228" 
d="M-54 -96q66 1 93.5 29t27.5 85v372h103v-278h58v-112h-58q-2 -103 -55 -154t-169 -52v110zM220 470h-91v91h91v-91zM98 470h-90v91h90v-91zM220 597h-91v92h91v-92zM98 597h-90v92h90v-92z" />
    <glyph glyph-name="uni069A.init" unicode="&#x69a;" horiz-adv-x="801" 
d="M0 0q-24 0 -40.5 15.5t-16.5 40.5q0 24 16 40t41 16h154v278h103v-278h37q44 0 66 28t22 77v173h102v-188q0 -49 20.5 -76t57.5 -27q74 0 74 104q0 58 -26 127.5t-63 109.5l84 63q43 -50 77.5 -130.5t34.5 -171.5t-42.5 -151.5t-133.5 -60.5q-97 0 -140 68h-4
q-41 -57 -129 -57h-294zM475 -174h-91v91h91v-91zM475 530h-91v91h91v-91z" />
    <glyph glyph-name="uni069A.medi" unicode="&#x69a;" horiz-adv-x="819" 
d="M567 -10q-93 0 -139 66h-5q-45 -56 -129 -56h-294q-23 0 -39.5 16t-16.5 40q0 56 79 56h131v278h103v-278h37q44 0 66 28t22 77v173h102v-188q0 -49 20.5 -76t57.5 -27q39 0 57.5 28.5t18.5 75.5q0 58 -26 127.5t-63 109.5l84 63q42 -49 76 -128t34 -165v-5q0 -91 76 -93
v-112q-86 2 -116 54h-4q-42 -64 -132 -64zM475 -174h-91v91h91v-91zM475 530h-91v91h91v-91z" />
    <glyph glyph-name="uni069A.fina" unicode="&#x69a;" horiz-adv-x="1022" 
d="M1022 112v-112q-86 2 -116 54h-4q-42 -64 -132 -64q-93 0 -139 67h-5q-45 -57 -129 -57h-30v-10q0 -88 -58 -142t-147 -54q-96 0 -149 51.5t-53 137.5v302h103v-250q0 -59 20.5 -94t79.5 -35q48 0 74.5 30.5t26.5 75.5v378h103v-278h30q43 0 65.5 28.5t22.5 76.5v173h102
v-188q0 -49 20.5 -76t57.5 -27q39 0 57.5 28.5t18.5 75.5q0 58 -26 127.5t-63 109.5l84 63q42 -49 76 -128t34 -165v-5q0 -91 76 -93zM675 530h-91v91h91v-91zM675 -173h-91v91h91v-91z" />
    <glyph glyph-name="uni069B.init" unicode="&#x69b;" horiz-adv-x="801" 
d="M0 0q-24 0 -40.5 15.5t-16.5 40.5q0 24 16 40t41 16h154v278h103v-278h37q44 0 66 28t22 77v173h102v-188q0 -49 20.5 -76t57.5 -27q74 0 74 104q0 58 -26 127.5t-63 109.5l84 63q43 -50 77.5 -130.5t34.5 -171.5t-42.5 -151.5t-133.5 -60.5q-97 0 -140 68h-4
q-41 -57 -129 -57h-294zM445 -82h91v-91h-91v91zM324 -82h90v-91h-90v91zM384 -210h91v-90h-91v90z" />
    <glyph glyph-name="uni069B.medi" unicode="&#x69b;" horiz-adv-x="819" 
d="M567 -10q-93 0 -139 66h-5q-45 -56 -129 -56h-294q-23 0 -39.5 16t-16.5 40q0 56 79 56h131v278h103v-278h37q44 0 66 28t22 77v173h102v-188q0 -49 20.5 -76t57.5 -27q39 0 57.5 28.5t18.5 75.5q0 58 -26 127.5t-63 109.5l84 63q42 -49 76 -128t34 -165v-5q0 -91 76 -93
v-112q-86 2 -116 54h-4q-42 -64 -132 -64zM445 -82h91v-91h-91v91zM324 -82h90v-91h-90v91zM384 -210h91v-90h-91v90z" />
    <glyph glyph-name="uni069B.fina" unicode="&#x69b;" horiz-adv-x="1022" 
d="M1022 112v-112q-86 2 -116 54h-4q-42 -64 -132 -64q-93 0 -139 67h-5q-45 -57 -129 -57h-30v-10q0 -88 -58 -142t-147 -54q-96 0 -149 51.5t-53 137.5v302h103v-250q0 -59 20.5 -94t79.5 -35q48 0 74.5 30.5t26.5 75.5v378h103v-278h30q43 0 65.5 28.5t22.5 76.5v173h102
v-188q0 -49 20.5 -76t57.5 -27q39 0 57.5 28.5t18.5 75.5q0 58 -26 127.5t-63 109.5l84 63q42 -49 76 -128t34 -165v-5q0 -91 76 -93zM645 -82h91v-91h-91v91zM524 -82h90v-91h-90v91zM584 -210h91v-90h-91v90z" />
    <glyph glyph-name="uni069C.init" unicode="&#x69c;" horiz-adv-x="801" 
d="M0 0q-24 0 -40.5 15.5t-16.5 40.5q0 24 16 40t41 16h154v278h103v-278h37q44 0 66 28t22 77v173h102v-188q0 -49 20.5 -76t57.5 -27q74 0 74 104q0 58 -26 127.5t-63 109.5l84 63q43 -50 77.5 -130.5t34.5 -171.5t-42.5 -151.5t-133.5 -60.5q-97 0 -140 68h-4
q-41 -57 -129 -57h-294zM445 -82h91v-91h-91v91zM324 -82h90v-91h-90v91zM384 -210h91v-90h-91v90zM538 530h-91v91h91v-91zM416 530h-90v91h90v-91zM477 657h-91v92h91v-92z" />
    <glyph glyph-name="uni069C.medi" unicode="&#x69c;" horiz-adv-x="819" 
d="M567 -10q-93 0 -139 66h-5q-45 -56 -129 -56h-294q-23 0 -39.5 16t-16.5 40q0 56 79 56h131v278h103v-278h37q44 0 66 28t22 77v173h102v-188q0 -49 20.5 -76t57.5 -27q39 0 57.5 28.5t18.5 75.5q0 58 -26 127.5t-63 109.5l84 63q42 -49 76 -128t34 -165v-5q0 -91 76 -93
v-112q-86 2 -116 54h-4q-42 -64 -132 -64zM445 -82h91v-91h-91v91zM324 -82h90v-91h-90v91zM384 -210h91v-90h-91v90zM538 530h-91v91h91v-91zM416 530h-90v91h90v-91zM477 657h-91v92h91v-92z" />
    <glyph glyph-name="uni069C.fina" unicode="&#x69c;" horiz-adv-x="1022" 
d="M1022 112v-112q-86 2 -116 54h-4q-42 -64 -132 -64q-93 0 -139 67h-5q-45 -57 -129 -57h-30v-10q0 -88 -58 -142t-147 -54q-96 0 -149 51.5t-53 137.5v302h103v-250q0 -59 20.5 -94t79.5 -35q48 0 74.5 30.5t26.5 75.5v378h103v-278h30q43 0 65.5 28.5t22.5 76.5v173h102
v-188q0 -49 20.5 -76t57.5 -27q39 0 57.5 28.5t18.5 75.5q0 58 -26 127.5t-63 109.5l84 63q42 -49 76 -128t34 -165v-5q0 -91 76 -93zM733 530h-91v91h91v-91zM611 530h-90v91h90v-91zM672 657h-91v92h91v-92zM645 -82h91v-91h-91v91zM524 -82h90v-91h-90v91zM584 -210h91
v-90h-91v90z" />
    <glyph glyph-name="uni069D.init" unicode="&#x69d;" horiz-adv-x="653" 
d="M0 0q-24 0 -40.5 15.5t-16.5 39.5t16.5 40.5t40.5 16.5h58v345h103v-88h6q46 50 107 79.5t123 29.5q96 0 147 -50t51 -138v-290h-595zM161 143v-31h330v137q0 115 -114 115q-96 0 -156 -68.5t-60 -152.5zM432 -173h-91v91h91v-91zM310 -173h-90v91h90v-91z" />
    <glyph glyph-name="uni069D.medi" unicode="&#x69d;" horiz-adv-x="652" 
d="M0 0q-24 0 -40.5 15.5t-16.5 39.5t16.5 40.5t40.5 16.5h58v345h103v-88h6q46 50 107 79.5t123 29.5q96 0 147 -50t51 -138v-178h57v-112h-652zM161 143v-31h330v137q0 115 -114 115q-96 0 -156 -68.5t-60 -152.5zM432 -173h-91v91h91v-91zM310 -173h-90v91h90v-91z" />
    <glyph glyph-name="uni069D.fina" unicode="&#x69d;" horiz-adv-x="962" 
d="M369 457h102v-88h7q45 50 106 79.5t123 29.5q96 0 147 -50t51 -138v-178h57v-112h-490v-9q0 -86 -57 -141.5t-152 -55.5q-101 0 -153 53.5t-52 141.5v296h103v-268q0 -46 23 -78.5t80 -32.5q22 0 36 9q69 15 69 102v440zM471 143v-31h330v137q0 115 -113 115
q-96 0 -156.5 -68.5t-60.5 -152.5zM786 -173h-91v91h91v-91zM664 -173h-90v91h90v-91z" />
    <glyph glyph-name="uni069E.init" unicode="&#x69e;" horiz-adv-x="653" 
d="M0 0q-24 0 -40.5 15.5t-16.5 39.5t16.5 40.5t40.5 16.5h58v345h103v-88h6q46 50 107 79.5t123 29.5q96 0 147 -50t51 -138v-290h-595zM161 143v-31h330v137q0 115 -114 115q-96 0 -156 -68.5t-60 -152.5zM451 555h-91v91h91v-91zM329 555h-90v91h90v-91zM390 682h-91v92
h91v-92z" />
    <glyph glyph-name="uni069E.medi" unicode="&#x69e;" horiz-adv-x="652" 
d="M0 0q-24 0 -40.5 15.5t-16.5 39.5t16.5 40.5t40.5 16.5h58v345h103v-88h6q46 50 107 79.5t123 29.5q96 0 147 -50t51 -138v-178h57v-112h-652zM161 143v-31h330v137q0 115 -114 115q-96 0 -156 -68.5t-60 -152.5zM451 555h-91v91h91v-91zM329 555h-90v91h90v-91zM390 682
h-91v92h91v-92z" />
    <glyph glyph-name="uni069E.fina" unicode="&#x69e;" horiz-adv-x="962" 
d="M369 457h102v-88h7q45 50 106 79.5t123 29.5q96 0 147 -50t51 -138v-178h57v-112h-490v-9q0 -86 -57 -141.5t-152 -55.5q-101 0 -153 53.5t-52 141.5v296h103v-268q0 -46 23 -78.5t80 -32.5q22 0 36 9q69 15 69 102v440zM471 143v-31h330v137q0 115 -113 115
q-96 0 -156.5 -68.5t-60.5 -152.5zM786 555h-91v91h91v-91zM664 555h-90v91h90v-91zM725 682h-91v92h91v-92z" />
    <glyph glyph-name="uni069F.medi" unicode="&#x69f;" horiz-adv-x="652" 
d="M0 0q-24 0 -40.5 15.5t-16.5 39.5t16.5 40.5t40.5 16.5h58v614h103v-357h6q46 50 107 79.5t123 29.5q96 0 147 -50t51 -138v-178h57v-112h-652zM161 143v-31h330v137q0 115 -114 115q-96 0 -156 -68.5t-60 -152.5zM481 555h-91v91h91v-91zM359 555h-90v91h90v-91z
M420 682h-91v92h91v-92z" />
    <glyph glyph-name="uni069F.fina" unicode="&#x69f;" horiz-adv-x="770" 
d="M50 0v112h126v614h103v-357h6q46 50 107 79.5t123 29.5q96 0 147 -50t51 -138v-178h57v-112h-720zM279 143v-31h330v137q0 115 -114 115q-96 0 -156 -68.5t-60 -152.5zM591 555h-91v91h91v-91zM469 555h-90v91h90v-91zM530 682h-91v92h91v-92z" />
    <glyph glyph-name="uni06A0.init" unicode="&#x6a0;" horiz-adv-x="535" 
d="M174 232q0 -47 29 -83.5t97 -36.5h159v-112h-459q-24 0 -40.5 15.5t-16.5 39.5t16.5 40.5t40.5 16.5h87l5 6q-34 34 -34 119q0 114 65 177.5t161 63.5q107 0 193 -71l-61 -94q-56 48 -126 48q-50 0 -83 -32t-33 -97zM373 555h-91v91h91v-91zM251 555h-90v91h90v-91z
M312 682h-91v92h91v-92z" />
    <glyph glyph-name="uni06A0.medi" unicode="&#x6a0;" horiz-adv-x="569" 
d="M-57 55q0 24 16.5 40.5t40.5 16.5h52q72 0 105 15q-52 40 -75.5 86t-23.5 86q0 84 66 131.5t168 47.5q89 0 154 -43.5t65 -130.5q0 -46 -27 -94.5t-71 -80.5q46 -17 119 -17h37v-112h-44q-156 0 -238 56q-88 -56 -246 -56h-41q-24 0 -40.5 15.5t-16.5 39.5zM290 370
q-63 0 -92.5 -24.5t-29.5 -57.5q0 -29 30 -66t93 -67q114 59 114 137q0 31 -26 54.5t-89 23.5zM390 555h-91v91h91v-91zM268 555h-90v91h90v-91zM329 682h-91v92h91v-92z" />
    <glyph glyph-name="uni06A0.fina" unicode="&#x6a0;" horiz-adv-x="611" 
d="M58 -97q0 66 44.5 124t100.5 92q-56 45 -80.5 95.5t-24.5 91.5q0 86 63 129t159 43q93 0 163 -43t70 -128q0 -48 -36 -94t-96 -76q53 -25 150 -25h40v-112h-40q-78 0 -160 18.5t-121 43.5q-125 -76 -125 -151q0 -41 37.5 -61.5t96.5 -20.5q34 0 62 5l15 -101
q-39 -11 -92 -11q-104 0 -165 47.5t-61 133.5zM209 303q0 -28 26.5 -62t82.5 -66q70 33 97.5 60t27.5 56q0 36 -35 58t-93 22q-48 0 -77 -17.5t-29 -50.5zM411 555h-91v91h91v-91zM289 555h-90v91h90v-91zM350 682h-91v92h91v-92z" />
    <glyph glyph-name="uni06A1.init" unicode="&#x6a1;" horiz-adv-x="535" 
d="M251 0h-251q-24 0 -40 15.5t-16 40.5q0 24 15.5 40t40.5 16h75q38 0 62 -4q0 1 1 3v2q-80 41 -80 150q0 95 56 155t152 60q104 0 157.5 -62t53.5 -175q0 -119 -60.5 -180t-165.5 -61zM371 248q0 56 -25.5 87.5t-76.5 31.5q-52 0 -78 -33t-26 -78q0 -56 42.5 -89.5
t112.5 -41.5q51 35 51 123z" />
    <glyph glyph-name="uni06A1.medi" unicode="&#x6a1;" horiz-adv-x="539" 
d="M-56 56q0 24 15.5 40t40.5 16h67q43 0 58 -3q0 1 0.5 3t0.5 3q-31 22 -49.5 64t-18.5 87q0 94 56 153t153 59q101 0 157.5 -60.5t56.5 -161.5q0 -37 -12.5 -75.5t-32.5 -62.5q0 -2 2 -6h101v-112h-539q-24 0 -40 15.5t-16 40.5zM269 368q-50 0 -77 -30.5t-27 -74.5
q0 -55 38.5 -95t105.5 -53q66 43 66 133q0 54 -28.5 87t-77.5 33z" />
    <glyph glyph-name="uni06A1.fina" unicode="&#x6a1;" horiz-adv-x="858" 
d="M164 283q0 -84 34 -127.5t119 -43.5h69q43 0 58 -3q0 1 0.5 3t0.5 3q-31 22 -49.5 64t-18.5 87q0 94 56 153t153 59q101 0 157.5 -60.5t56.5 -161.5q0 -37 -12.5 -75.5t-32.5 -62.5q0 -2 2 -6h101v-112h-529q-189 0 -246 129q-25 54 -25 199v27h106v-72zM588 368
q-50 0 -77 -30.5t-27 -74.5q0 -55 38.5 -95t105.5 -53q66 43 66 133q0 54 -28.5 87t-77.5 33z" />
    <glyph glyph-name="uni06A2.init" unicode="&#x6a2;" horiz-adv-x="535" 
d="M251 0h-251q-24 0 -40 15.5t-16 40.5q0 24 15.5 40t40.5 16h75q38 0 62 -4q0 1 1 3v2q-80 41 -80 150q0 95 56 155t152 60q104 0 157.5 -62t53.5 -175q0 -119 -60.5 -180t-165.5 -61zM371 248q0 56 -25.5 87.5t-76.5 31.5q-52 0 -78 -33t-26 -78q0 -56 42.5 -89.5
t112.5 -41.5q51 35 51 123zM313 -173h-91v91h91v-91z" />
    <glyph glyph-name="uni06A2.medi" unicode="&#x6a2;" horiz-adv-x="539" 
d="M-56 56q0 24 15.5 40t40.5 16h67q43 0 58 -3q0 1 0.5 3t0.5 3q-31 22 -49.5 64t-18.5 87q0 94 56 153t153 59q101 0 157.5 -60.5t56.5 -161.5q0 -37 -12.5 -75.5t-32.5 -62.5q0 -2 2 -6h101v-112h-539q-24 0 -40 15.5t-16 40.5zM269 368q-50 0 -77 -30.5t-27 -74.5
q0 -55 38.5 -95t105.5 -53q66 43 66 133q0 54 -28.5 87t-77.5 33zM315 -173h-91v91h91v-91z" />
    <glyph glyph-name="uni06A2.fina" unicode="&#x6a2;" horiz-adv-x="858" 
d="M164 283q0 -84 34 -127.5t119 -43.5h69q43 0 58 -3q0 1 0.5 3t0.5 3q-31 22 -49.5 64t-18.5 87q0 94 56 153t153 59q101 0 157.5 -60.5t56.5 -161.5q0 -37 -12.5 -75.5t-32.5 -62.5q0 -2 2 -6h101v-112h-529q-189 0 -246 129q-25 54 -25 199v27h106v-72zM588 368
q-50 0 -77 -30.5t-27 -74.5q0 -55 38.5 -95t105.5 -53q66 43 66 133q0 54 -28.5 87t-77.5 33zM630 -173h-91v91h91v-91z" />
    <glyph glyph-name="uni06A3.init" unicode="&#x6a3;" horiz-adv-x="535" 
d="M251 0h-251q-24 0 -40 15.5t-16 40.5q0 24 15.5 40t40.5 16h75q38 0 62 -4q0 1 1 3v2q-80 41 -80 150q0 95 56 155t152 60q104 0 157.5 -62t53.5 -175q0 -119 -60.5 -180t-165.5 -61zM371 248q0 56 -25.5 87.5t-76.5 31.5q-52 0 -78 -33t-26 -78q0 -56 42.5 -89.5
t112.5 -41.5q51 35 51 123zM313 -174h-91v91h91v-91zM313 555h-91v91h91v-91z" />
    <glyph glyph-name="uni06A3.medi" unicode="&#x6a3;" horiz-adv-x="539" 
d="M-56 56q0 24 15.5 40t40.5 16h67q43 0 58 -3q0 1 0.5 3t0.5 3q-31 22 -49.5 64t-18.5 87q0 94 56 153t153 59q101 0 157.5 -60.5t56.5 -161.5q0 -37 -12.5 -75.5t-32.5 -62.5q0 -2 2 -6h101v-112h-539q-24 0 -40 15.5t-16 40.5zM269 368q-50 0 -77 -30.5t-27 -74.5
q0 -55 38.5 -95t105.5 -53q66 43 66 133q0 54 -28.5 87t-77.5 33zM315 555h-91v91h91v-91zM315 -174h-91v91h91v-91z" />
    <glyph glyph-name="uni06A3.fina" unicode="&#x6a3;" horiz-adv-x="858" 
d="M164 283q0 -84 34 -127.5t119 -43.5h69q43 0 58 -3q0 1 0.5 3t0.5 3q-31 22 -49.5 64t-18.5 87q0 94 56 153t153 59q101 0 157.5 -60.5t56.5 -161.5q0 -37 -12.5 -75.5t-32.5 -62.5q0 -2 2 -6h101v-112h-529q-189 0 -246 129q-25 54 -25 199v27h106v-72zM588 368
q-50 0 -77 -30.5t-27 -74.5q0 -55 38.5 -95t105.5 -53q66 43 66 133q0 54 -28.5 87t-77.5 33zM630 -174h-91v91h91v-91zM630 555h-91v91h91v-91z" />
    <glyph glyph-name="uni06A4" unicode="&#x6a4;" horiz-adv-x="854" arabic-form="isolated" 
d="M164 283q0 -84 34 -127.5t119 -43.5h71q46 0 70 -4v3l1 2q-81 36 -81 156q0 90 56 149.5t151 59.5q104 0 157.5 -62t53.5 -175q0 -119 -60.5 -180t-165.5 -61h-241q-200 0 -252 144q-19 53 -19 175v36h106v-72zM587 367q-51 0 -77 -33t-26 -78q0 -56 42.5 -90t112.5 -42
q51 35 51 124q0 56 -25.5 87.5t-77.5 31.5zM691 555h-91v91h91v-91zM569 555h-90v91h90v-91zM630 682h-91v92h91v-92z" />
    <glyph glyph-name="uni06A5.init" unicode="&#x6a5;" horiz-adv-x="535" 
d="M251 0h-251q-24 0 -40 15.5t-16 40.5q0 24 15.5 40t40.5 16h75q38 0 62 -4q0 1 1 3v2q-80 41 -80 150q0 95 56 155t152 60q104 0 157.5 -62t53.5 -175q0 -119 -60.5 -180t-165.5 -61zM371 248q0 56 -25.5 87.5t-76.5 31.5q-52 0 -78 -33t-26 -78q0 -56 42.5 -89.5
t112.5 -41.5q51 35 51 123zM282 -82h91v-91h-91v91zM161 -82h90v-91h-90v91zM221 -210h91v-90h-91v90z" />
    <glyph glyph-name="uni06A5.medi" unicode="&#x6a5;" horiz-adv-x="539" 
d="M-56 56q0 24 15.5 40t40.5 16h67q43 0 58 -3q0 1 0.5 3t0.5 3q-31 22 -49.5 64t-18.5 87q0 94 56 153t153 59q101 0 157.5 -60.5t56.5 -161.5q0 -37 -12.5 -75.5t-32.5 -62.5q0 -2 2 -6h101v-112h-539q-24 0 -40 15.5t-16 40.5zM269 368q-50 0 -77 -30.5t-27 -74.5
q0 -55 38.5 -95t105.5 -53q66 43 66 133q0 54 -28.5 87t-77.5 33zM284 -82h91v-91h-91v91zM163 -82h90v-91h-90v91zM223 -210h91v-90h-91v90z" />
    <glyph glyph-name="uni06A5.fina" unicode="&#x6a5;" horiz-adv-x="858" 
d="M164 283q0 -84 34 -127.5t119 -43.5h69q43 0 58 -3q0 1 0.5 3t0.5 3q-31 22 -49.5 64t-18.5 87q0 94 56 153t153 59q101 0 157.5 -60.5t56.5 -161.5q0 -37 -12.5 -75.5t-32.5 -62.5q0 -2 2 -6h101v-112h-529q-189 0 -246 129q-25 54 -25 199v27h106v-72zM588 368
q-50 0 -77 -30.5t-27 -74.5q0 -55 38.5 -95t105.5 -53q66 43 66 133q0 54 -28.5 87t-77.5 33zM600 -82h91v-91h-91v91zM479 -82h90v-91h-90v91zM539 -210h91v-90h-91v90z" />
    <glyph glyph-name="uni06A6" unicode="&#x6a6;" horiz-adv-x="854" arabic-form="isolated" 
d="M164 283q0 -84 34 -127.5t119 -43.5h71q46 0 70 -4v3l1 2q-81 36 -81 156q0 90 56 149.5t151 59.5q104 0 157.5 -62t53.5 -175q0 -119 -60.5 -180t-165.5 -61h-241q-200 0 -252 144q-19 53 -19 175v36h106v-72zM587 367q-51 0 -77 -33t-26 -78q0 -56 42.5 -90t112.5 -42
q51 35 51 124q0 56 -25.5 87.5t-77.5 31.5zM691 555h-91v91h91v-91zM569 555h-90v91h90v-91zM691 682h-91v92h91v-92zM569 682h-90v92h90v-92z" />
    <glyph glyph-name="uni06A7.fina" unicode="&#x6a7;" horiz-adv-x="723" 
d="M563 112v120q0 133 -100 133q-53 0 -83.5 -34t-30.5 -100q0 -119 113 -119h101zM669 243v-131h54v-112h-59q-12 -102 -87 -162t-207 -60q-89 0 -152 24t-96.5 66.5t-48.5 91.5t-15 109v216h103v-185q0 -46 9 -81t30.5 -65.5t64.5 -47t106 -16.5q73 0 122.5 28t58.5 85
h-81q-227 0 -227 229q0 116 58 181t165 65q95 0 148.5 -60t53.5 -175zM502 555h-91v91h91v-91z" />
    <glyph glyph-name="uni06A8.fina" unicode="&#x6a8;" horiz-adv-x="723" 
d="M563 112v120q0 133 -100 133q-53 0 -83.5 -34t-30.5 -100q0 -119 113 -119h101zM669 243v-131h54v-112h-59q-12 -102 -87 -162t-207 -60q-89 0 -152 24t-96.5 66.5t-48.5 91.5t-15 109v216h103v-185q0 -46 9 -81t30.5 -65.5t64.5 -47t106 -16.5q73 0 122.5 28t58.5 85
h-81q-227 0 -227 229q0 116 58 181t165 65q95 0 148.5 -60t53.5 -175zM563 555h-91v91h91v-91zM441 555h-90v91h90v-91zM502 682h-91v92h91v-92z" />
    <glyph glyph-name="uni06A9" unicode="&#x6a9;" horiz-adv-x="816" arabic-form="isolated" 
d="M371 417v75l379 244l50 -77l-305 -196l163 -98q32 -19 51.5 -41t27.5 -48.5t10 -46t2 -51.5v-178h-426q-265 0 -265 252v100h103v-69q0 -85 34.5 -128t121.5 -43h329v60q0 78 -49 108z" />
    <glyph glyph-name="uni06AA.init" unicode="&#x6aa;" horiz-adv-x="1010" 
d="M234 345h501q114 0 165.5 -42.5t51.5 -143.5v-159h-952q-24 0 -40 15.5t-16 40.5q0 24 16 40t40 16h843v41q0 46 -22.5 62t-76.5 16h-686v91l188 189h150v-8z" />
    <glyph glyph-name="uni06AA.medi" unicode="&#x6aa;" horiz-adv-x="1009" 
d="M234 345h501q114 0 165 -42.5t51 -143.5v-47h58v-112h-1009q-24 0 -40 15.5t-16 40.5q0 24 16 40t40 16h842v41q0 46 -22.5 62t-76.5 16h-685v91l188 189h150v-8z" />
    <glyph glyph-name="uni06AA.fina" unicode="&#x6aa;" horiz-adv-x="1126" 
d="M350 345h501q114 0 165.5 -42.5t51.5 -143.5v-47h58v-112h-1076v112h909v41q0 46 -22.5 62t-76.5 16h-686v91l188 189h150v-8z" />
    <glyph glyph-name="uni06AB.init" unicode="&#x6ab;" horiz-adv-x="504" 
d="M-58 56q0 25 16 40.5t42 15.5h333v60q0 39 -10 65t-39 43l-226 137v75l379 244l51 -77l-79 -51q24 -24 24 -59t-23.5 -60t-61.5 -25q-28 0 -49.5 15t-30.5 39l-86 -55l163 -98q32 -19 51.5 -41t27.5 -48.5t10 -46t2 -51.5v-178h-437q-26 0 -41.5 15.5t-15.5 40.5z
M384 549q0 22 -18 32l-53 -34q1 -14 10.5 -24t24.5 -10q17 0 26.5 10.5t9.5 25.5z" />
    <glyph glyph-name="uni06AB.medi" unicode="&#x6ab;" horiz-adv-x="504" 
d="M-58 56q0 25 16 40.5t42 15.5h333v60q0 39 -10 65t-39 43l-226 137v75l379 244l51 -77l-79 -51q24 -24 24 -59t-23.5 -60t-61.5 -25q-28 0 -49.5 15t-30.5 39l-86 -55l163 -98q32 -19 51.5 -41t27.5 -48.5t10 -46t2 -51.5v-66h68v-112h-505q-26 0 -41.5 15.5t-15.5 40.5z
M384 549q0 22 -18 32l-53 -34q1 -14 10.5 -24t24.5 -10q17 0 26.5 10.5t9.5 25.5z" />
    <glyph glyph-name="uni06AC.init" unicode="&#x6ac;" horiz-adv-x="504" 
d="M-58 56q0 25 16 40.5t42 15.5h333v60q0 39 -10 65t-39 43l-226 137v75l379 244l51 -77l-306 -196l163 -98q32 -19 51.5 -41t27.5 -48.5t10 -46t2 -51.5v-178h-437q-26 0 -41.5 15.5t-15.5 40.5zM229 654h-91v91h91v-91z" />
    <glyph glyph-name="uni06AC.medi" unicode="&#x6ac;" horiz-adv-x="504" 
d="M-58 56q0 25 16 40.5t42 15.5h333v60q0 39 -10 65t-39 43l-226 137v75l379 244l51 -77l-306 -196l163 -98q32 -19 51.5 -41t27.5 -48.5t10 -46t2 -51.5v-66h68v-112h-505q-26 0 -41.5 15.5t-15.5 40.5zM229 654h-91v91h91v-91z" />
    <glyph glyph-name="uni06AC.fina" unicode="&#x6ac;" horiz-adv-x="778" 
d="M600 726h103v-528q0 -43 16 -64t59 -22v-112q-93 0 -122 56q-25 -33 -54 -44.5t-76 -11.5h-202q-264 0 -264 252v103h103v-72q0 -86 33.5 -128.5t121.5 -42.5h207q44 0 59.5 22.5t15.5 64.5v527zM416 496q49 0 87 -26l-26 -51q-30 18 -63 18q-22 0 -34.5 -11t-12.5 -27
q0 -35 41 -35h94v-58h-229v58h37l2 2q-10 13 -10 35q0 35 28 65t86 30zM446 530h-91v91h91v-91z" />
    <glyph glyph-name="uni06AD" unicode="&#x6ad;" horiz-adv-x="768" arabic-form="isolated" 
d="M608 726h102v-548q0 -88 -45.5 -133t-129.5 -45h-204q-142 0 -207.5 67t-65.5 185v103h103v-72q0 -87 35 -129t129 -42h210q42 0 57.5 23t15.5 63v528zM414 496q49 0 87 -26l-26 -51q-30 18 -63 18q-22 0 -34.5 -11t-12.5 -27q0 -35 41 -35h94v-58h-229v58h37l2 2
q-10 13 -10 35q0 35 28 65t86 30zM510 530h-91v91h91v-91zM388 530h-90v91h90v-91zM449 657h-91v92h91v-92z" />
    <glyph glyph-name="uni06AE.init" unicode="&#x6ae;" horiz-adv-x="504" 
d="M-58 56q0 25 16 40.5t42 15.5h333v60q0 39 -10 65t-39 43l-226 137v75l379 244l51 -77l-306 -196l163 -98q32 -19 51.5 -41t27.5 -48.5t10 -46t2 -51.5v-178h-437q-26 0 -41.5 15.5t-15.5 40.5zM269 -82h91v-91h-91v91zM148 -82h90v-91h-90v91zM208 -210h91v-90h-91v90z
" />
    <glyph glyph-name="uni06AE.medi" unicode="&#x6ae;" horiz-adv-x="504" 
d="M-58 56q0 25 16 40.5t42 15.5h333v60q0 39 -10 65t-39 43l-226 137v75l379 244l51 -77l-306 -196l163 -98q32 -19 51.5 -41t27.5 -48.5t10 -46t2 -51.5v-66h68v-112h-505q-26 0 -41.5 15.5t-15.5 40.5zM269 -82h91v-91h-91v91zM148 -82h90v-91h-90v91zM208 -210h91v-90
h-91v90z" />
    <glyph glyph-name="uni06AE.fina" unicode="&#x6ae;" horiz-adv-x="778" 
d="M600 726h103v-528q0 -43 16 -64t59 -22v-112q-93 0 -122 56q-25 -33 -54 -44.5t-76 -11.5h-202q-264 0 -264 252v103h103v-72q0 -86 33.5 -128.5t121.5 -42.5h207q44 0 59.5 22.5t15.5 64.5v527zM416 496q49 0 87 -26l-26 -51q-30 18 -63 18q-22 0 -34.5 -11t-12.5 -27
q0 -35 41 -35h94v-58h-229v58h37l2 2q-10 13 -10 35q0 35 28 65t86 30zM434 -82h91v-91h-91v91zM313 -82h90v-91h-90v91zM373 -210h91v-90h-91v90z" />
    <glyph glyph-name="uni06AF" unicode="&#x6af;" horiz-adv-x="816" arabic-form="isolated" 
d="M371 417v75l379 244l50 -77l-305 -196l163 -98q32 -19 51.5 -41t27.5 -48.5t10 -46t2 -51.5v-178h-426q-265 0 -265 252v100h103v-69q0 -85 34.5 -128t121.5 -43h329v60q0 78 -49 108zM660 835l31 -51l-376 -242l-32 51z" />
    <glyph glyph-name="uni06B0.init" unicode="&#x6b0;" horiz-adv-x="504" 
d="M-58 56q0 25 16 40.5t42 15.5h333v60q0 39 -10 65t-39 43l-226 137v75l379 244l51 -77l-79 -51q24 -24 24 -59t-23.5 -60t-61.5 -25q-28 0 -49.5 15t-30.5 39l-86 -55l163 -98q32 -19 51.5 -41t27.5 -48.5t10 -46t2 -51.5v-178h-437q-26 0 -41.5 15.5t-15.5 40.5z
M370 840l31 -51l-376 -242l-32 51zM384 549q0 22 -18 32l-53 -34q1 -14 10.5 -24t24.5 -10q17 0 26.5 10.5t9.5 25.5z" />
    <glyph glyph-name="uni06B0.medi" unicode="&#x6b0;" horiz-adv-x="504" 
d="M-58 56q0 25 16 40.5t42 15.5h333v60q0 39 -10 65t-39 43l-226 137v75l379 244l51 -77l-79 -51q24 -24 24 -59t-23.5 -60t-61.5 -25q-28 0 -49.5 15t-30.5 39l-86 -55l163 -98q32 -19 51.5 -41t27.5 -48.5t10 -46t2 -51.5v-66h68v-112h-505q-26 0 -41.5 15.5t-15.5 40.5z
M370 840l31 -51l-376 -242l-32 51zM384 549q0 22 -18 32l-53 -34q1 -14 10.5 -24t24.5 -10q17 0 26.5 10.5t9.5 25.5z" />
    <glyph glyph-name="uni06B0.fina" unicode="&#x6b0;" horiz-adv-x="806" 
d="M371 417v75l379 244l50 -77l-88 -56q19 -24 19 -54q0 -35 -23.5 -60t-61.5 -25q-54 0 -76 47l-75 -48l163 -98q32 -19 51.5 -41t27.5 -48.5t10 -46t2 -51.5v-66h57v-112h-483q-265 0 -265 252v100h103v-69q0 -85 34.5 -128t121.5 -43h329v60q0 79 -49 108
q-45 27 -129.5 78.5t-96.5 58.5zM660 835l31 -51l-376 -242l-32 51zM682 549q0 17 -12 27l-58 -38q7 -25 34 -25q17 0 26.5 10.5t9.5 25.5z" />
    <glyph glyph-name="uni06B1" unicode="&#x6b1;" horiz-adv-x="816" arabic-form="isolated" 
d="M371 417v75l379 244l50 -77l-305 -196l163 -98q32 -19 51.5 -41t27.5 -48.5t10 -46t2 -51.5v-178h-426q-265 0 -265 252v100h103v-69q0 -85 34.5 -128t121.5 -43h329v60q0 78 -49 108zM660 835l31 -51l-376 -242l-32 51zM464 779h-61v64h61v-64zM376 715h-61v64h61v-64z
" />
    <glyph glyph-name="uni06B2.init" unicode="&#x6b2;" horiz-adv-x="504" 
d="M-58 56q0 25 16 40.5t42 15.5h333v60q0 39 -10 65t-39 43l-226 137v75l379 244l51 -77l-306 -196l163 -98q32 -19 51.5 -41t27.5 -48.5t10 -46t2 -51.5v-178h-437q-26 0 -41.5 15.5t-15.5 40.5zM328 -173h-91v91h91v-91zM206 -173h-90v91h90v-91zM370 840l31 -51
l-376 -242l-32 51z" />
    <glyph glyph-name="uni06B2.medi" unicode="&#x6b2;" horiz-adv-x="504" 
d="M-58 56q0 25 16 40.5t42 15.5h333v60q0 39 -10 65t-39 43l-226 137v75l379 244l51 -77l-306 -196l163 -98q32 -19 51.5 -41t27.5 -48.5t10 -46t2 -51.5v-66h68v-112h-505q-26 0 -41.5 15.5t-15.5 40.5zM328 -173h-91v91h91v-91zM206 -173h-90v91h90v-91zM370 840l31 -51
l-376 -242l-32 51z" />
    <glyph glyph-name="uni06B2.fina" unicode="&#x6b2;" horiz-adv-x="806" 
d="M371 417v75l379 244l50 -77l-305 -196l163 -98q32 -19 51.5 -41t27.5 -48.5t10 -46t2 -51.5v-66h57v-112h-483q-265 0 -265 252v100h103v-69q0 -85 34.5 -128t121.5 -43h329v60q0 79 -49 108q-45 27 -129.5 78.5t-96.5 58.5zM544 -173h-91v91h91v-91zM422 -173h-90v91h90
v-91zM660 835l31 -51l-376 -242l-32 51z" />
    <glyph glyph-name="uni06B3" unicode="&#x6b3;" horiz-adv-x="816" arabic-form="isolated" 
d="M371 417v75l379 244l50 -77l-305 -196l163 -98q32 -19 51.5 -41t27.5 -48.5t10 -46t2 -51.5v-178h-426q-265 0 -265 252v100h103v-69q0 -85 34.5 -128t121.5 -43h329v60q0 78 -49 108zM493 -301h-91v91h91v-91zM493 -174h-91v92h91v-92zM660 835l31 -51l-376 -242l-32 51
z" />
    <glyph glyph-name="uni06B4.init" unicode="&#x6b4;" horiz-adv-x="504" 
d="M-58 56q0 25 16 40.5t42 15.5h333v60q0 39 -10 65t-39 43l-226 137v75l379 244l51 -77l-306 -196l163 -98q32 -19 51.5 -41t27.5 -48.5t10 -46t2 -51.5v-178h-437q-26 0 -41.5 15.5t-15.5 40.5zM370 840l31 -51l-376 -242l-32 51zM197 779h-61v64h61v-64zM109 806h-61v64
h61v-64zM109 715h-61v64h61v-64z" />
    <glyph glyph-name="uni06B4.medi" unicode="&#x6b4;" horiz-adv-x="504" 
d="M-58 56q0 25 16 40.5t42 15.5h333v60q0 39 -10 65t-39 43l-226 137v75l379 244l51 -77l-306 -196l163 -98q32 -19 51.5 -41t27.5 -48.5t10 -46t2 -51.5v-66h68v-112h-505q-26 0 -41.5 15.5t-15.5 40.5zM370 840l31 -51l-376 -242l-32 51zM197 779h-61v64h61v-64zM109 806
h-61v64h61v-64zM109 715h-61v64h61v-64z" />
    <glyph glyph-name="uni06B4.fina" unicode="&#x6b4;" horiz-adv-x="806" 
d="M371 417v75l379 244l50 -77l-305 -196l163 -98q32 -19 51.5 -41t27.5 -48.5t10 -46t2 -51.5v-66h57v-112h-483q-265 0 -265 252v100h103v-69q0 -85 34.5 -128t121.5 -43h329v60q0 79 -49 108q-45 27 -129.5 78.5t-96.5 58.5zM660 835l31 -51l-376 -242l-32 51zM464 779
h-61v64h61v-64zM376 715h-61v64h61v-64zM376 806h-61v64h61v-64z" />
    <glyph glyph-name="uni06B5.init" unicode="&#x6b5;" horiz-adv-x="229" 
d="M68 726h103v-523q0 -203 -171 -203q-24 0 -40.5 15.5t-16.5 39.5t16.5 40t40.5 17q41 1 54.5 25t13.5 74v515zM86 780l-86 172l42 21l71 -121l74 121l42 -22l-85 -171h-58z" />
    <glyph glyph-name="uni06B5.medi" unicode="&#x6b5;" horiz-adv-x="249" 
d="M-57 55q0 21 16 39t41 18q37 0 54 21.5t17 70.5v522h103v-528q0 -44 16.5 -64.5t58.5 -21.5v-112q-92 0 -121 56q-40 -56 -128 -56q-24 0 -40.5 15.5t-16.5 39.5zM96 780l-86 172l42 21l71 -121l74 121l42 -22l-85 -171h-58z" />
    <glyph glyph-name="uni06B5.fina" unicode="&#x6b5;" horiz-adv-x="530" 
d="M472 726v-614h58v-112h-58q0 -25 -8 -47q-12 -71 -65 -115t-136 -44q-100 0 -152.5 54t-52.5 142v295h103v-266q0 -43 23.5 -78t79.5 -35t80.5 32t24.5 81v707h103zM390 780l-86 172l42 21l71 -121l74 121l42 -22l-85 -171h-58z" />
    <glyph glyph-name="uni06B6.init" unicode="&#x6b6;" horiz-adv-x="229" 
d="M68 726h103v-523q0 -203 -171 -203q-24 0 -40.5 15.5t-16.5 39.5t16.5 40t40.5 17q41 1 54.5 25t13.5 74v515zM160 780h-91v91h91v-91z" />
    <glyph glyph-name="uni06B6.medi" unicode="&#x6b6;" horiz-adv-x="249" 
d="M-57 55q0 21 16 39t41 18q37 0 54 21.5t17 70.5v522h103v-528q0 -44 16.5 -64.5t58.5 -21.5v-112q-92 0 -121 56q-40 -56 -128 -56q-24 0 -40.5 15.5t-16.5 39.5zM170 780h-91v91h91v-91z" />
    <glyph glyph-name="uni06B6.fina" unicode="&#x6b6;" horiz-adv-x="530" 
d="M472 726v-614h58v-112h-58q0 -25 -8 -47q-12 -71 -65 -115t-136 -44q-100 0 -152.5 54t-52.5 142v295h103v-266q0 -43 23.5 -78t79.5 -35t80.5 32t24.5 81v707h103zM466 780h-91v91h91v-91z" />
    <glyph glyph-name="uni06B7.init" unicode="&#x6b7;" horiz-adv-x="229" 
d="M68 726h103v-523q0 -203 -171 -203q-24 0 -40.5 15.5t-16.5 39.5t16.5 40t40.5 17q41 1 54.5 25t13.5 74v515zM184 780h-61v64h61v-64zM107 780h-62v64h62v-64zM145 861h-61v66h61v-66z" />
    <glyph glyph-name="uni06B7.medi" unicode="&#x6b7;" horiz-adv-x="249" 
d="M-57 55q0 21 16 39t41 18q37 0 54 21.5t17 70.5v522h103v-528q0 -44 16.5 -64.5t58.5 -21.5v-112q-92 0 -121 56q-40 -56 -128 -56q-24 0 -40.5 15.5t-16.5 39.5zM194 780h-61v64h61v-64zM117 780h-62v64h62v-64zM155 861h-61v66h61v-66z" />
    <glyph glyph-name="uni06B7.fina" unicode="&#x6b7;" horiz-adv-x="530" 
d="M472 726v-614h58v-112h-58q0 -25 -8 -47q-12 -71 -65 -115t-136 -44q-100 0 -152.5 54t-52.5 142v295h103v-266q0 -43 23.5 -78t79.5 -35t80.5 32t24.5 81v707h103zM489 780h-61v64h61v-64zM412 780h-62v64h62v-64zM450 861h-61v66h61v-66z" />
    <glyph glyph-name="uni06B8.init" unicode="&#x6b8;" horiz-adv-x="229" 
d="M68 726h103v-523q0 -203 -171 -203q-24 0 -40.5 15.5t-16.5 39.5t16.5 40t40.5 17q41 1 54.5 25t13.5 74v515zM129 -82h91v-91h-91v91zM8 -82h90v-91h-90v91zM68 -210h91v-90h-91v90z" />
    <glyph glyph-name="uni06B8.medi" unicode="&#x6b8;" horiz-adv-x="249" 
d="M-57 55q0 21 16 39t41 18q37 0 54 21.5t17 70.5v522h103v-528q0 -44 16.5 -64.5t58.5 -21.5v-112q-92 0 -121 56q-40 -56 -128 -56q-24 0 -40.5 15.5t-16.5 39.5zM139 -82h91v-91h-91v91zM18 -82h90v-91h-90v91zM78 -210h91v-90h-91v90z" />
    <glyph glyph-name="uni06B8.fina" unicode="&#x6b8;" horiz-adv-x="530" 
d="M472 726v-614h58v-112h-58q0 -25 -8 -47q-12 -71 -65 -115t-136 -44q-100 0 -152.5 54t-52.5 142v295h103v-266q0 -43 23.5 -78t79.5 -35t80.5 32t24.5 81v707h103zM278 -260h61v-65h-61v65zM200 -260h62v-65h-62v65zM239 -342h61v-65h-61v65z" />
    <glyph glyph-name="uni06B9.init" unicode="&#x6b9;" horiz-adv-x="229" 
d="M68 455h103v-252q0 -203 -171 -203q-24 0 -40.5 15.5t-16.5 39.5t16.5 40t40.5 17q41 1 54.5 25t13.5 74v244zM160 530h-91v91h91v-91zM140 -173h-91v91h91v-91z" />
    <glyph glyph-name="uni06B9.medi" unicode="&#x6b9;" horiz-adv-x="249" 
d="M-57 55q0 21 16 39t41 18q37 0 54 21.5t17 70.5v186h103v-192q0 -44 16.5 -64.5t58.5 -21.5v-112q-92 0 -121 56q-40 -56 -128 -56q-24 0 -40.5 15.5t-16.5 39.5zM170 470h-91v91h91v-91zM170 -173h-91v91h91v-91z" />
    <glyph glyph-name="uni06B9.fina" unicode="&#x6b9;" horiz-adv-x="530" 
d="M472 389v-277h58v-112h-58q0 -88 -56.5 -147t-152.5 -59q-100 0 -152.5 54t-52.5 142v295h103v-266q0 -49 24 -81t79 -32q105 0 105 113v370h103zM312 -350h-91v91h91v-91zM312 450h-91v91h91v-91z" />
    <glyph glyph-name="uni06BA" unicode="&#x6ba;" horiz-adv-x="530" arabic-form="isolated" 
d="M472 390v-393q0 -89 -56 -146t-153 -57q-100 0 -152.5 54t-52.5 142v295h103v-266q0 -49 24 -81.5t79 -32.5q105 0 105 114v371h103z" />
    <glyph glyph-name="uni06BB" unicode="&#x6bb;" horiz-adv-x="530" arabic-form="isolated" 
d="M472 390v-393q0 -89 -56 -146t-153 -57q-100 0 -152.5 54t-52.5 142v295h103v-266q0 -49 24 -81.5t79 -32.5q105 0 105 114v371h103zM299 560q-22 0 -38 -14.5t-22 -38.5h95v15q0 38 -35 38zM393 450h-252v58h37v137h61v-59h1l2 -1q30 32 76 32q32 0 53.5 -18t21.5 -52
v-97z" />
    <glyph glyph-name="uni06BC.init" unicode="&#x6bc;" horiz-adv-x="229" 
d="M15 -19q0 13 2 19h-17q-24 0 -40.5 15.5t-16.5 39.5t16.5 40t40.5 17q41 1 54.5 25t13.5 74v244h103v-252q0 -96 -35 -144q49 -24 49 -78q0 -35 -23.5 -60t-61.5 -25q-36 0 -60.5 25.5t-24.5 59.5zM151 530h-91v91h91v-91zM65 -19q0 -14 9.5 -25t25.5 -11q17 0 26.5 10.5
t9.5 25.5t-10 25.5t-26 10.5q-15 0 -25 -10.5t-10 -25.5z" />
    <glyph glyph-name="uni06BC.medi" unicode="&#x6bc;" horiz-adv-x="249" 
d="M41 -2v5q-19 -3 -41 -3q-24 0 -40.5 15.5t-16.5 39.5q0 21 16 39t41 18q37 0 54 21.5t17 70.5v186h103v-192q0 -44 16.5 -64.5t58.5 -21.5v-112q-20 0 -38 3v-5q0 -35 -23.5 -60t-61.5 -25q-36 0 -60.5 25.5t-24.5 59.5zM170 471h-91v91h91v-91zM91 -2q0 -14 9.5 -25
t25.5 -11q17 0 26.5 10.5t9.5 25.5t-10 25.5t-26 10.5q-15 0 -25 -10.5t-10 -25.5z" />
    <glyph glyph-name="uni06BC.fina" unicode="&#x6bc;" horiz-adv-x="530" 
d="M181 -228q0 17 6 32q-64 19 -96.5 68t-32.5 118v295h103v-266q0 -49 24 -81t79 -32q105 0 105 113v370h103v-277h58v-112h-58q0 -67 -34 -119t-95 -74q8 -16 8 -35q0 -35 -23.5 -60t-61.5 -25q-36 0 -60.5 25.5t-24.5 59.5zM312 450h-91v91h91v-91zM231 -228
q0 -14 9.5 -25t25.5 -11q17 0 26.5 10.5t9.5 25.5q0 14 -9 24q-18 -2 -30 -2q-5 0 -13 0.5t-12 0.5q-7 -8 -7 -23z" />
    <glyph glyph-name="uni06BD.init" unicode="&#x6bd;" horiz-adv-x="229" 
d="M68 455h103v-252q0 -203 -171 -203q-24 0 -40.5 15.5t-16.5 39.5t16.5 40t40.5 17q41 1 54.5 25t13.5 74v244zM129 -82h91v-91h-91v91zM8 -82h90v-91h-90v91zM68 -210h91v-90h-91v90z" />
    <glyph glyph-name="uni06BD.medi" unicode="&#x6bd;" horiz-adv-x="249" 
d="M-57 55q0 21 16 39t41 18q37 0 54 21.5t17 70.5v186h103v-192q0 -44 16.5 -64.5t58.5 -21.5v-112q-92 0 -121 56q-40 -56 -128 -56q-24 0 -40.5 15.5t-16.5 39.5zM139 -82h91v-91h-91v91zM18 -82h90v-91h-90v91zM78 -210h91v-90h-91v90z" />
    <glyph glyph-name="uni06BD.fina" unicode="&#x6bd;" horiz-adv-x="530" 
d="M472 389v-277h58v-112h-58q0 -88 -56.5 -147t-152.5 -59q-100 0 -152.5 54t-52.5 142v295h103v-266q0 -49 24 -81t79 -32q105 0 105 113v370h103zM373 450h-91v91h91v-91zM251 450h-90v91h90v-91zM312 577h-91v92h91v-92z" />
    <glyph glyph-name="uni06BE" unicode="&#x6be;" horiz-adv-x="809" arabic-form="isolated" 
d="M176 232q0 71 42 120t112 56q-14 28 -20 42q40 26 98.5 43t110.5 17q102 0 167 -61t65 -204q0 -125 -65 -185t-163 -60h-473v112h109q46 0 66 -4l2 4q-24 16 -37.5 49t-13.5 71zM499 115v-5q78 0 111 34t33 105q0 150 -130 150q-34 0 -71 -15q44 -17 68 -57.5t24 -99.5
v-9q-2 -63 -35 -103zM354 313q-36 0 -55.5 -25.5t-19.5 -60.5q0 -39 25 -69t73 -39q51 28 51 103q0 39 -18 65t-56 26z" />
    <glyph glyph-name="uni06BF.init" unicode="&#x6bf;" horiz-adv-x="505" 
d="M0 0q-24 0 -40 15.5t-16 40.5q0 24 16 40t40 16h355l3 6q-15 13 -21.5 40.5t-11 71t-9.5 66.5q-15 70 -88 70q-65 0 -125 -35l-45 90q83 57 176 57q172 0 193 -185q2 -13 4.5 -37.5t4 -35.5t4 -29.5t6 -28t8 -20.5t11 -17.5t15.5 -10.5v-114h-480zM298 555h-91v91h91v-91
zM235 -82h91v-91h-91v91zM114 -82h90v-91h-90v91zM174 -210h91v-90h-91v90z" />
    <glyph glyph-name="uni06BF.medi" unicode="&#x6bf;" horiz-adv-x="508" 
d="M234 478q174 0 194 -201q11 -106 26 -135q16 -30 47 -30h7v-112h-508q-24 0 -40 15.5t-16 40.5q0 24 16 40t40 16h354l4 6q-11 10 -18 29t-9 35t-5.5 49t-5.5 48q-11 87 -92 87q-64 0 -126 -35q-7 15 -22 45t-22 45q82 57 176 57zM300 555h-91v91h91v-91zM235 -82h91v-91
h-91v91zM114 -82h90v-91h-90v91zM174 -210h91v-90h-91v90z" />
    <glyph glyph-name="uni06BF.fina" unicode="&#x6bf;" horiz-adv-x="558" 
d="M404 112l4 6q-11 10 -18 29t-9 35t-5.5 49t-5.5 48q-11 87 -92 87q-64 0 -126 -35q-7 15 -22 45t-22 45q82 57 176 57q174 0 194 -201q11 -106 26 -135q16 -30 47 -30h7v-112h-293q-51 0 -76 -25t-25 -63q0 -82 119 -82q35 0 70 7l15 -102q-41 -12 -104 -12
q-95 0 -150.5 47.5t-55.5 137.5q0 99 64.5 151.5t159.5 52.5h122zM340 557h-91v91h91v-91zM451 -65h61v-65h-61v65zM373 -65h62v-65h-62v65zM412 -147h61v-65h-61v65z" />
    <glyph glyph-name="uni06C0" unicode="&#x6c0;" horiz-adv-x="545" arabic-form="isolated" 
d="M279 477q82 0 145 -75.5t63 -189.5q0 -103 -55.5 -160.5t-158.5 -57.5q-113 0 -164 54.5t-51 161.5q0 111 65.5 189t155.5 78zM277 367q-45 0 -77 -44.5t-32 -104.5q0 -58 26 -85t82 -27q54 0 79.5 32t25.5 81q0 63 -33 105.5t-71 42.5zM298 745q49 0 87 -26l-26 -51
q-30 18 -63 18q-22 0 -34.5 -11t-12.5 -27q0 -35 41 -35h94v-58h-229v58h37l2 2q-10 13 -10 35q0 35 28 65t86 30z" />
    <glyph glyph-name="uni06C1" unicode="&#x6c1;" horiz-adv-x="545" arabic-form="isolated" 
d="M279 477q82 0 145 -75.5t63 -189.5q0 -103 -55.5 -160.5t-158.5 -57.5q-113 0 -164 54.5t-51 161.5q0 111 65.5 189t155.5 78zM277 367q-45 0 -77 -44.5t-32 -104.5q0 -58 26 -85t82 -27q54 0 79.5 32t25.5 81q0 63 -33 105.5t-71 42.5z" />
    <glyph glyph-name="uni06C2.fina" unicode="&#x6c2;" horiz-adv-x="518" 
d="M441 237v-21q0 -54 16 -79t61 -25v-112q-95 0 -138.5 41.5t-43.5 134.5v46q0 47 -22 73t-65 26q-39 0 -62.5 -25.5t-23.5 -76.5q0 -54 21 -80.5t75 -26.5h28v-112h-51q-92 0 -135 55t-43 152q0 109 51 167.5t145 58.5q87 0 137 -50t50 -146zM276 695q49 0 87 -26l-26 -51
q-30 18 -63 18q-22 0 -34.5 -11t-12.5 -27q0 -35 41 -35h94v-58h-229v58h37l2 2q-10 13 -10 35q0 35 28 65t86 30z" />
    <glyph glyph-name="uni06C3.fina" unicode="&#x6c3;" horiz-adv-x="518" 
d="M441 237v-21q0 -54 16 -79t61 -25v-112q-95 0 -138.5 41.5t-43.5 134.5v46q0 47 -22 73t-65 26q-39 0 -62.5 -25.5t-23.5 -76.5q0 -54 21 -80.5t75 -26.5h28v-112h-51q-92 0 -135 55t-43 152q0 109 51 167.5t145 58.5q87 0 137 -50t50 -146zM355 505h-91v91h91v-91z
M233 505h-90v91h90v-91z" />
    <glyph glyph-name="uni06C4.fina" unicode="&#x6c4;" horiz-adv-x="541" 
d="M280 478q97 0 150 -59.5t53 -175.5v-131h58v-112h-58q-3 -106 -63 -164t-167 -58h-152v113h39q0 35 25 60t60 25q33 0 56.5 -21t27.5 -53q33 15 48.5 43t15.5 58h-89q-226 0 -226 229q0 116 57.5 181t164.5 65zM377 112v120q0 133 -101 133q-52 0 -82.5 -34t-30.5 -100
q0 -119 112 -119h102zM250 -109q1 0 5 0.5t6 0.5q-1 14 -11 24t-25 10t-25 -10t-10 -25h60z" />
    <glyph glyph-name="uni06C5" unicode="&#x6c5;" horiz-adv-x="541" arabic-form="isolated" 
d="M483 242v-225q0 -118 -61.5 -178.5t-174.5 -60.5h-146v113h140q67 0 101 32h-171v44h196q5 20 5 38v23q-4 2 -6 4q-39 -30 -98 -30q-101 0 -155.5 58.5t-54.5 173.5q0 114 58 179t163 65q96 0 150 -60t54 -176zM274 365q-53 0 -81.5 -35t-28.5 -95q0 -57 26.5 -91
t77.5 -34q109 0 109 132q0 60 -28 91.5t-75 31.5z" />
    <glyph glyph-name="uni06C6" unicode="&#x6c6;" horiz-adv-x="541" arabic-form="isolated" 
d="M483 242v-225q0 -118 -61.5 -178.5t-174.5 -60.5h-146v113h140q131 0 131 114v23q-4 2 -6 4q-39 -30 -98 -30q-101 0 -155.5 58.5t-54.5 173.5q0 114 58 179t163 65q96 0 150 -60t54 -176zM274 365q-53 0 -81.5 -35t-28.5 -95q0 -57 26.5 -91t77.5 -34q109 0 109 132
q0 60 -28 91.5t-75 31.5zM238 555l-86 172l42 21l71 -121l74 121l42 -22l-85 -171h-58z" />
    <glyph glyph-name="uni06C7" unicode="&#x6c7;" horiz-adv-x="541" arabic-form="isolated" 
d="M483 242v-225q0 -118 -61.5 -178.5t-174.5 -60.5h-146v113h140q131 0 131 114v23q-4 2 -6 4q-39 -30 -98 -30q-101 0 -155.5 58.5t-54.5 173.5q0 114 58 179t163 65q96 0 150 -60t54 -176zM274 365q-53 0 -81.5 -35t-28.5 -95q0 -57 26.5 -91t77.5 -34q109 0 109 132
q0 60 -28 91.5t-75 31.5zM251 632l1 3q-22 16 -22 47q0 27 19 48t50 21q35 0 55.5 -23t20.5 -55q0 -28 -17.5 -51.5t-51.5 -33.5l-145 -40v57z" />
    <glyph glyph-name="uni06C8" unicode="&#x6c8;" horiz-adv-x="541" arabic-form="isolated" 
d="M483 242v-225q0 -118 -61.5 -178.5t-174.5 -60.5h-146v113h140q131 0 131 114v23q-4 2 -6 4q-39 -30 -98 -30q-101 0 -155.5 58.5t-54.5 173.5q0 114 58 179t163 65q96 0 150 -60t54 -176zM274 365q-53 0 -81.5 -35t-28.5 -95q0 -57 26.5 -91t77.5 -34q109 0 109 132
q0 60 -28 91.5t-75 31.5zM299 728v-173h-63v173h63z" />
    <glyph glyph-name="uni06C9" unicode="&#x6c9;" horiz-adv-x="541" arabic-form="isolated" 
d="M483 242v-225q0 -118 -61.5 -178.5t-174.5 -60.5h-146v113h140q131 0 131 114v23q-4 2 -6 4q-39 -30 -98 -30q-101 0 -155.5 58.5t-54.5 173.5q0 114 58 179t163 65q96 0 150 -60t54 -176zM274 365q-53 0 -81.5 -35t-28.5 -95q0 -57 26.5 -91t77.5 -34q109 0 109 132
q0 60 -28 91.5t-75 31.5zM153 576l86 172h58l85 -171l-42 -22l-74 121l-71 -121z" />
    <glyph glyph-name="uni06CA.fina" unicode="&#x6ca;" horiz-adv-x="541" 
d="M280 478q97 0 150 -59.5t53 -175.5v-131h58v-112h-58q-3 -106 -63 -164t-167 -58h-152v113h149q64 0 93.5 34.5t29.5 77.5h-89q-226 0 -226 229q0 116 57.5 181t164.5 65zM377 112v120q0 133 -101 133q-52 0 -82.5 -34t-30.5 -100q0 -119 112 -119h102zM374 555h-91v91
h91v-91zM252 555h-90v91h90v-91z" />
    <glyph glyph-name="uni06CB" unicode="&#x6cb;" horiz-adv-x="541" arabic-form="isolated" 
d="M483 242v-225q0 -118 -61.5 -178.5t-174.5 -60.5h-146v113h140q131 0 131 114v23q-4 2 -6 4q-39 -30 -98 -30q-101 0 -155.5 58.5t-54.5 173.5q0 114 58 179t163 65q96 0 150 -60t54 -176zM274 365q-53 0 -81.5 -35t-28.5 -95q0 -57 26.5 -91t77.5 -34q109 0 109 132
q0 60 -28 91.5t-75 31.5zM374 555h-91v91h91v-91zM252 555h-90v91h90v-91zM313 682h-91v92h91v-92z" />
    <glyph glyph-name="uni06CC" unicode="&#x6cc;" horiz-adv-x="864" arabic-form="isolated" 
d="M806 82h-104v282h-55q-37 0 -52 -21t-15 -62v-281h-257q-265 0 -265 252v103h103v-72q0 -91 39 -131t144 -40h132v187q0 87 47.5 133t128.5 46h154v-396z" />
    <glyph glyph-name="uni06CD.fina" unicode="&#x6cd;" horiz-adv-x="988" 
d="M825 0v364h-52q-37 0 -52 -21t-15 -62v-281h-258q-131 0 -191.5 58.5t-70.5 165.5l-77 -61l-59 77l134 115h102v-72q0 -85 34.5 -128t121.5 -43h159v187q0 87 47.5 133t128.5 46h154v-366h57v-112h-163z" />
    <glyph glyph-name="uni06CE.init" unicode="&#x6ce;" horiz-adv-x="229" 
d="M68 455h103v-252q0 -203 -171 -203q-24 0 -40.5 15.5t-16.5 39.5t16.5 40t40.5 17q41 1 54.5 25t13.5 74v244zM220 -173h-91v91h91v-91zM98 -173h-90v91h90v-91zM86 530l-86 172l42 21l71 -121l74 121l42 -22l-85 -171h-58z" />
    <glyph glyph-name="uni06CE.fina" unicode="&#x6ce;" horiz-adv-x="864" 
d="M580 0h-257q-265 0 -265 252v103h103v-72q0 -85 34.5 -128t121.5 -43h159v187q0 87 47.5 133t128.5 46h154v-366h58v-112h-162v364h-55q-37 0 -52 -21t-15 -62v-281zM131 429l-86 172l42 21l71 -121l74 121l42 -22l-85 -171h-58z" />
    <glyph glyph-name="uni06CF.fina" unicode="&#x6cf;" horiz-adv-x="541" 
d="M280 478q97 0 150 -59.5t53 -175.5v-131h58v-112h-58q-3 -106 -63 -164t-167 -58h-152v113h149q64 0 93.5 34.5t29.5 77.5h-89q-226 0 -226 229q0 116 57.5 181t164.5 65zM377 112v120q0 133 -101 133q-52 0 -82.5 -34t-30.5 -100q0 -119 112 -119h102zM313 555h-91v91
h91v-91z" />
    <glyph glyph-name="uni06D0" unicode="&#x6d0;" horiz-adv-x="864" arabic-form="isolated" 
d="M806 82h-104v282h-55q-37 0 -52 -21t-15 -62v-281h-257q-265 0 -265 252v103h103v-72q0 -91 39 -131t144 -40h132v187q0 87 47.5 133t128.5 46h154v-396zM435 -301h-91v91h91v-91zM435 -174h-91v92h91v-92z" />
    <glyph glyph-name="uni06D1.init" unicode="&#x6d1;" horiz-adv-x="229" 
d="M68 455h103v-252q0 -203 -171 -203q-24 0 -40.5 15.5t-16.5 39.5t16.5 40t40.5 17q41 1 54.5 25t13.5 74v244zM129 -82h91v-91h-91v91zM8 -82h90v-91h-90v91zM68 -210h91v-90h-91v90z" />
    <glyph glyph-name="uni06D1.medi" unicode="&#x6d1;" horiz-adv-x="249" 
d="M-57 55q0 21 16 39t41 18q37 0 54 21.5t17 70.5v186h103v-192q0 -44 16.5 -64.5t58.5 -21.5v-112q-92 0 -121 56q-40 -56 -128 -56q-24 0 -40.5 15.5t-16.5 39.5zM139 -82h91v-91h-91v91zM18 -82h90v-91h-90v91zM78 -210h91v-90h-91v90z" />
    <glyph glyph-name="uni06D1.fina" unicode="&#x6d1;" horiz-adv-x="864" 
d="M580 0h-257q-265 0 -265 252v103h103v-72q0 -85 34.5 -128t121.5 -43h159v187q0 87 47.5 133t128.5 46h154v-366h58v-112h-162v364h-55q-37 0 -52 -21t-15 -62v-281zM425 -67h91v-91h-91v91zM304 -67h90v-91h-90v91zM364 -195h91v-90h-91v90z" />
    <glyph glyph-name="uni06D2" unicode="&#x6d2;" horiz-adv-x="800" arabic-form="isolated" 
d="M742 -211h-684v150q0 88 47 130.5t129 42.5h76q37 0 49.5 23t12.5 68v67h103v-100q0 -83 -45.5 -126.5t-119.5 -43.5h-72q-74 0 -74 -74v-24h578v-113z" />
    <glyph glyph-name="uni06D3" unicode="&#x6d3;" horiz-adv-x="800" arabic-form="isolated" 
d="M742 -211h-684v150q0 88 47 130.5t129 42.5h76q37 0 49.5 23t12.5 68v67h103v-100q0 -83 -45.5 -126.5t-119.5 -43.5h-72q-74 0 -74 -74v-24h578v-113zM313 541q49 0 87 -26l-26 -51q-30 18 -63 18q-22 0 -34.5 -11t-12.5 -27q0 -35 41 -35h94v-58h-229v58h37l2 2
q-10 13 -10 35q0 35 28 65t86 30z" />
    <glyph glyph-name="uni06D5.fina" unicode="&#x6d5;" horiz-adv-x="541" 
d="M364 478h105v-272q0 -46 14.5 -69.5t57.5 -24.5v-112h-11q-56 0 -93 25t-48 63q-29 -26 -71 -41.5t-80 -15.5q-89 0 -134.5 43t-45.5 117q0 28 7.5 55.5t28.5 58.5t53.5 55.5t88.5 45t128 29.5v43zM245 139q120 0 120 127v66q-114 -13 -156.5 -50.5t-42.5 -76.5
q0 -30 21 -48t58 -18z" />
    <glyph glyph-name="uni06EE.fina" unicode="&#x6ee;" horiz-adv-x="506" 
d="M345 112v156q0 99 -96 99q-74 0 -125 -39l-55 88q74 61 185 61q195 0 195 -184v-181h57v-112h-448v112h287zM133 576l86 172h58l85 -171l-42 -22l-74 121l-71 -121z" />
    <glyph glyph-name="uni06EF.fina" unicode="&#x6ef;" horiz-adv-x="228" 
d="M-54 -96q66 1 93.5 29t27.5 85v372h103v-278h58v-112h-58q-2 -103 -55 -154t-169 -52v110zM0 491l86 172h58l85 -171l-42 -22l-74 121l-71 -121z" />
    <glyph glyph-name="uni06FA.init" unicode="&#x6fa;" horiz-adv-x="801" 
d="M0 0q-24 0 -40.5 15.5t-16.5 40.5q0 24 16 40t41 16h154v278h103v-278h37q44 0 66 28t22 77v173h102v-188q0 -49 20.5 -76t57.5 -27q74 0 74 104q0 58 -26 127.5t-63 109.5l84 63q43 -50 77.5 -130.5t34.5 -171.5t-42.5 -151.5t-133.5 -60.5q-97 0 -140 68h-4
q-41 -57 -129 -57h-294zM475 -173h-91v91h91v-91zM538 530h-91v91h91v-91zM416 530h-90v91h90v-91zM477 657h-91v92h91v-92z" />
    <glyph glyph-name="uni06FA.medi" unicode="&#x6fa;" horiz-adv-x="819" 
d="M567 -10q-93 0 -139 66h-5q-45 -56 -129 -56h-294q-23 0 -39.5 16t-16.5 40q0 56 79 56h131v278h103v-278h37q44 0 66 28t22 77v173h102v-188q0 -49 20.5 -76t57.5 -27q39 0 57.5 28.5t18.5 75.5q0 58 -26 127.5t-63 109.5l84 63q42 -49 76 -128t34 -165v-5q0 -91 76 -93
v-112q-86 2 -116 54h-4q-42 -64 -132 -64zM475 -173h-91v91h91v-91zM538 530h-91v91h91v-91zM416 530h-90v91h90v-91zM477 657h-91v92h91v-92z" />
    <glyph glyph-name="uni06FA.fina" unicode="&#x6fa;" horiz-adv-x="1022" 
d="M1022 112v-112q-86 2 -116 54h-4q-42 -64 -132 -64q-93 0 -139 67h-5q-45 -57 -129 -57h-30v-10q0 -88 -58 -142t-147 -54q-96 0 -149 51.5t-53 137.5v302h103v-250q0 -59 20.5 -94t79.5 -35q48 0 74.5 30.5t26.5 75.5v378h103v-278h30q43 0 65.5 28.5t22.5 76.5v173h102
v-188q0 -49 20.5 -76t57.5 -27q39 0 57.5 28.5t18.5 75.5q0 58 -26 127.5t-63 109.5l84 63q42 -49 76 -128t34 -165v-5q0 -91 76 -93zM675 -173h-91v91h91v-91zM733 530h-91v91h91v-91zM611 530h-90v91h90v-91zM672 657h-91v92h91v-92z" />
    <glyph glyph-name="uni06FB.init" unicode="&#x6fb;" horiz-adv-x="653" 
d="M0 0q-24 0 -40.5 15.5t-16.5 39.5t16.5 40.5t40.5 16.5h58v345h103v-88h6q46 50 107 79.5t123 29.5q96 0 147 -50t51 -138v-290h-595zM161 143v-31h330v137q0 115 -114 115q-96 0 -156 -68.5t-60 -152.5zM400 -173h-91v91h91v-91zM400 555h-91v91h91v-91z" />
    <glyph glyph-name="uni06FB.medi" unicode="&#x6fb;" horiz-adv-x="652" 
d="M0 0q-24 0 -40.5 15.5t-16.5 39.5t16.5 40.5t40.5 16.5h58v345h103v-88h6q46 50 107 79.5t123 29.5q96 0 147 -50t51 -138v-178h57v-112h-652zM161 143v-31h330v137q0 115 -114 115q-96 0 -156 -68.5t-60 -152.5zM400 -173h-91v91h91v-91zM400 555h-91v91h91v-91z" />
    <glyph glyph-name="uni06FB.fina" unicode="&#x6fb;" horiz-adv-x="962" 
d="M369 457h102v-88h7q45 50 106 79.5t123 29.5q96 0 147 -50t51 -138v-178h57v-112h-490v-9q0 -86 -57 -141.5t-152 -55.5q-101 0 -153 53.5t-52 141.5v296h103v-268q0 -46 23 -78.5t80 -32.5q22 0 36 9q69 15 69 102v440zM471 143v-31h330v137q0 115 -113 115
q-96 0 -156.5 -68.5t-60.5 -152.5zM722 -173h-91v91h91v-91zM722 555h-91v91h91v-91z" />
    <glyph glyph-name="uni06FC.init" unicode="&#x6fc;" horiz-adv-x="535" 
d="M174 232q0 -47 29 -83.5t97 -36.5h159v-112h-459q-24 0 -40.5 15.5t-16.5 39.5t16.5 40.5t40.5 16.5h87l5 6q-34 34 -34 119q0 114 65 177.5t161 63.5q107 0 193 -71l-61 -94q-56 48 -126 48q-50 0 -83 -32t-33 -97zM313 -173h-91v91h91v-91zM313 555h-91v91h91v-91z" />
    <glyph glyph-name="uni06FC.medi" unicode="&#x6fc;" horiz-adv-x="569" 
d="M-57 55q0 24 16.5 40.5t40.5 16.5h52q72 0 105 15q-52 40 -75.5 86t-23.5 86q0 84 66 131.5t168 47.5q89 0 154 -43.5t65 -130.5q0 -46 -27 -94.5t-71 -80.5q46 -17 119 -17h37v-112h-44q-156 0 -238 56q-88 -56 -246 -56h-41q-24 0 -40.5 15.5t-16.5 39.5zM290 370
q-63 0 -92.5 -24.5t-29.5 -57.5q0 -29 30 -66t93 -67q114 59 114 137q0 31 -26 54.5t-89 23.5zM330 -173h-91v91h91v-91zM330 555h-91v91h91v-91z" />
    <glyph glyph-name="uni06FC.fina" unicode="&#x6fc;" horiz-adv-x="611" 
d="M58 -97q0 66 44.5 124t100.5 92q-56 45 -80.5 95.5t-24.5 91.5q0 86 63 129t159 43q93 0 163 -43t70 -128q0 -48 -36 -94t-96 -76q53 -25 150 -25h40v-112h-40q-78 0 -160 18.5t-121 43.5q-125 -76 -125 -151q0 -41 37.5 -61.5t96.5 -20.5q34 0 62 5l15 -101
q-39 -11 -92 -11q-104 0 -165 47.5t-61 133.5zM209 303q0 -28 26.5 -62t82.5 -66q70 33 97.5 60t27.5 56q0 36 -35 58t-93 22q-48 0 -77 -17.5t-29 -50.5zM351 555h-91v91h91v-91zM496 -135h-91v91h91v-91z" />
    <glyph glyph-name="uni06FF.init" unicode="&#x6ff;" horiz-adv-x="691" 
d="M-56 55q0 25 16 41t40 16h48q39 0 59 -4l2 4q-24 16 -37.5 49t-13.5 71q0 71 42 120t112 56q-14 28 -20 42q40 26 98 43t110 17q233 0 233 -264q0 -125 -64.5 -185.5t-158.5 -60.5h-410q-24 0 -40 15.5t-16 39.5zM381 115v-5q76 0 110 34.5t34 104.5q0 150 -130 150
q-34 0 -71 -15q44 -17 68 -57.5t24 -99.5v-9q-2 -63 -35 -103zM236 313q-36 0 -55.5 -25.5t-19.5 -60.5q0 -39 25 -69t73 -39q51 28 51 103q0 39 -18 65t-56 26zM231 576l86 172h58l85 -171l-42 -22l-74 121l-71 -121z" />
    <glyph glyph-name="uni06FF.medi" unicode="&#x6ff;" horiz-adv-x="708" 
d="M58 232q0 71 42 120t112 56q-14 28 -20 42q40 26 98 43t110 17q234 0 234 -267v-12q0 -64 15 -91t59 -28v-112q-106 0 -140 62q-59 -62 -158 -62h-410q-25 0 -40.5 15.5t-15.5 40.5q0 24 15.5 40t40.5 16h50q37 0 57 -5q0 2 2 4q-24 17 -37.5 50.5t-13.5 70.5zM381 115
v-5q76 0 110.5 34t34.5 105q0 150 -131 150q-34 0 -71 -15q44 -17 68 -57.5t24 -99.5v-9q-2 -65 -35 -103zM236 313q-36 0 -55.5 -25.5t-19.5 -60.5q0 -39 25 -69t73 -39q51 27 51 103q0 39 -18 65t-56 26zM228 574l86 174h58l85 -173l-42 -20l-74 116l-71 -116z" />
    <glyph glyph-name="uni06FF.fina" unicode="&#x6ff;" horiz-adv-x="818" 
d="M50 0v112h110q37 0 57 -5q0 2 2 4q-24 17 -37.5 50.5t-13.5 70.5q0 71 42 120t112 56q-14 28 -20 42q40 26 98 43t110 17q234 0 234 -267v-12q0 -64 15 -91t59 -28v-112q-106 0 -140 62q-59 -62 -158 -62h-470zM491 115v-5q76 0 110.5 34t34.5 105q0 150 -131 150
q-34 0 -71 -15q44 -17 68 -57.5t24 -99.5v-9q-2 -65 -35 -103zM346 313q-36 0 -55.5 -25.5t-19.5 -60.5q0 -39 25 -69t73 -39q51 27 51 103q0 39 -18 65t-56 26zM369 576l86 172h58l85 -171l-42 -22l-74 121l-71 -121z" />
    <glyph glyph-name="uni0671.fina" unicode="&#x671;" horiz-adv-x="231" arabic-form="final" 
d="M231 0h-34q-69 0 -103 31.5t-34 109.5v535h103v-505q0 -32 12 -45.5t43 -13.5h13v-112zM205 854q-24 0 -40 -16.5t-16 -40.5h91v24q0 15 -10 24t-25 9zM299 740h-218q-42 0 -59 34q-7 -6 -20 -18.5t-17 -16.5h-4v68l46 46h8q17 -55 46 -55h8v113h60v-31h3q31 31 73 31
q31 0 52.5 -18t21.5 -52v-101z" />
    <glyph glyph-name="uni067B.fina" unicode="&#x67b;" horiz-adv-x="778" arabic-form="final" 
d="M600 389h103v-191q0 -43 16 -64t59 -22v-112q-93 0 -122 56q-25 -33 -54 -44.5t-76 -11.5h-202q-264 0 -264 252v103h103v-72q0 -86 33.5 -128.5t121.5 -42.5h207q44 0 59.5 22.5t15.5 64.5v190zM453 -301h-91v91h91v-91zM453 -174h-91v92h91v-92z" />
    <glyph glyph-name="uni067B.init" unicode="&#x67b;" horiz-adv-x="229" arabic-form="initial" 
d="M68 455h103v-252q0 -203 -171 -203q-24 0 -40.5 15.5t-16.5 39.5t16.5 40t40.5 17q41 1 54.5 25t13.5 74v244zM148 -301h-91v91h91v-91zM148 -174h-91v92h91v-92z" />
    <glyph glyph-name="uni067B.medi" unicode="&#x67b;" horiz-adv-x="249" arabic-form="medial" 
d="M-57 55q0 21 16 39t41 18q37 0 54 21.5t17 70.5v186h103v-192q0 -44 16.5 -64.5t58.5 -21.5v-112q-92 0 -121 56q-40 -56 -128 -56q-24 0 -40.5 15.5t-16.5 39.5zM170 -301h-91v91h91v-91zM170 -174h-91v92h91v-92z" />
    <glyph glyph-name="uni067E.fina" unicode="&#x67e;" horiz-adv-x="778" arabic-form="final" 
d="M600 389h103v-191q0 -43 16 -64t59 -22v-112q-93 0 -122 56q-25 -33 -54 -44.5t-76 -11.5h-202q-264 0 -264 252v103h103v-72q0 -86 33.5 -128.5t121.5 -42.5h207q44 0 59.5 22.5t15.5 64.5v190zM423 -82h91v-91h-91v91zM302 -82h90v-91h-90v91zM362 -210h91v-90h-91v90z
" />
    <glyph glyph-name="uni067E.init" unicode="&#x67e;" horiz-adv-x="229" arabic-form="initial" 
d="M68 455h103v-252q0 -203 -171 -203q-24 0 -40.5 15.5t-16.5 39.5t16.5 40t40.5 17q41 1 54.5 25t13.5 74v244zM129 -82h91v-91h-91v91zM8 -82h90v-91h-90v91zM68 -210h91v-90h-91v90z" />
    <glyph glyph-name="uni067E.medi" unicode="&#x67e;" horiz-adv-x="249" arabic-form="medial" 
d="M-57 55q0 21 16 39t41 18q37 0 54 21.5t17 70.5v186h103v-192q0 -44 16.5 -64.5t58.5 -21.5v-112q-92 0 -121 56q-40 -56 -128 -56q-24 0 -40.5 15.5t-16.5 39.5zM139 -82h91v-91h-91v91zM18 -82h90v-91h-90v91zM78 -210h91v-90h-91v90z" />
    <glyph glyph-name="uni0680.fina" unicode="&#x680;" horiz-adv-x="778" arabic-form="final" 
d="M600 389h103v-191q0 -43 16 -64t59 -22v-112q-93 0 -122 56q-25 -33 -54 -44.5t-76 -11.5h-202q-264 0 -264 252v103h103v-72q0 -86 33.5 -128.5t121.5 -42.5h207q44 0 59.5 22.5t15.5 64.5v190zM514 -301h-91v91h91v-91zM392 -301h-90v91h90v-91zM514 -174h-91v92h91
v-92zM392 -174h-90v92h90v-92z" />
    <glyph glyph-name="uni0680.init" unicode="&#x680;" horiz-adv-x="229" arabic-form="initial" 
d="M68 455h103v-252q0 -203 -171 -203q-24 0 -40.5 15.5t-16.5 39.5t16.5 40t40.5 17q41 1 54.5 25t13.5 74v244zM220 -301h-91v91h91v-91zM98 -301h-90v91h90v-91zM220 -174h-91v92h91v-92zM98 -174h-90v92h90v-92z" />
    <glyph glyph-name="uni0680.medi" unicode="&#x680;" horiz-adv-x="249" arabic-form="medial" 
d="M-57 55q0 21 16 39t41 18q37 0 54 21.5t17 70.5v186h103v-192q0 -44 16.5 -64.5t58.5 -21.5v-112q-92 0 -121 56q-40 -56 -128 -56q-24 0 -40.5 15.5t-16.5 39.5zM230 -301h-91v91h91v-91zM108 -301h-90v91h90v-91zM230 -174h-91v92h91v-92zM108 -174h-90v92h90v-92z" />
    <glyph glyph-name="uni067A.fina" unicode="&#x67a;" horiz-adv-x="778" arabic-form="final" 
d="M600 389h103v-191q0 -43 16 -64t59 -22v-112q-93 0 -122 56q-25 -33 -54 -44.5t-76 -11.5h-202q-264 0 -264 252v103h103v-72q0 -86 33.5 -128.5t121.5 -42.5h207q44 0 59.5 22.5t15.5 64.5v190zM453 450h-91v91h91v-91zM453 577h-91v92h91v-92z" />
    <glyph glyph-name="uni067A.init" unicode="&#x67a;" horiz-adv-x="229" arabic-form="initial" 
d="M68 455h103v-252q0 -203 -171 -203q-24 0 -40.5 15.5t-16.5 39.5t16.5 40t40.5 17q41 1 54.5 25t13.5 74v244zM160 530h-91v91h91v-91zM160 657h-91v92h91v-92z" />
    <glyph glyph-name="uni067A.medi" unicode="&#x67a;" horiz-adv-x="249" arabic-form="medial" 
d="M-57 55q0 21 16 39t41 18q37 0 54 21.5t17 70.5v186h103v-192q0 -44 16.5 -64.5t58.5 -21.5v-112q-92 0 -121 56q-40 -56 -128 -56q-24 0 -40.5 15.5t-16.5 39.5zM170 470h-91v91h91v-91zM170 597h-91v92h91v-92z" />
    <glyph glyph-name="uni067F.fina" unicode="&#x67f;" horiz-adv-x="778" arabic-form="final" 
d="M600 389h103v-191q0 -43 16 -64t59 -22v-112q-93 0 -122 56q-25 -33 -54 -44.5t-76 -11.5h-202q-264 0 -264 252v103h103v-72q0 -86 33.5 -128.5t121.5 -42.5h207q44 0 59.5 22.5t15.5 64.5v190zM514 450h-91v91h91v-91zM392 450h-90v91h90v-91zM514 577h-91v92h91v-92z
M392 577h-90v92h90v-92z" />
    <glyph glyph-name="uni067F.init" unicode="&#x67f;" horiz-adv-x="229" arabic-form="initial" 
d="M68 455h103v-252q0 -203 -171 -203q-24 0 -40.5 15.5t-16.5 39.5t16.5 40t40.5 17q41 1 54.5 25t13.5 74v244zM220 530h-91v91h91v-91zM98 530h-90v91h90v-91zM220 657h-91v92h91v-92zM98 657h-90v92h90v-92z" />
    <glyph glyph-name="uni067F.medi" unicode="&#x67f;" horiz-adv-x="249" arabic-form="medial" 
d="M-57 55q0 21 16 39t41 18q37 0 54 21.5t17 70.5v186h103v-192q0 -44 16.5 -64.5t58.5 -21.5v-112q-92 0 -121 56q-40 -56 -128 -56q-24 0 -40.5 15.5t-16.5 39.5zM230 470h-91v91h91v-91zM108 470h-90v91h90v-91zM230 597h-91v92h91v-92zM108 597h-90v92h90v-92z" />
    <glyph glyph-name="uni0679.fina" unicode="&#x679;" horiz-adv-x="778" arabic-form="final" 
d="M600 389h103v-191q0 -43 16 -64t59 -22v-112q-93 0 -122 56q-25 -33 -54 -44.5t-76 -11.5h-202q-264 0 -264 252v103h103v-72q0 -86 33.5 -128.5t121.5 -42.5h207q44 0 59.5 22.5t15.5 64.5v190zM435 560q-22 0 -38 -14.5t-22 -38.5h95v15q0 38 -35 38zM529 450h-252v58
h37v137h61v-59h1l2 -1q30 32 76 32q32 0 53.5 -18t21.5 -52v-97z" />
    <glyph glyph-name="uni0679.init" unicode="&#x679;" horiz-adv-x="229" arabic-form="initial" 
d="M68 455h103v-252q0 -203 -171 -203q-24 0 -40.5 15.5t-16.5 39.5t16.5 40t40.5 17q41 1 54.5 25t13.5 74v244zM146 640q-22 0 -38 -14.5t-22 -38.5h95v15q0 38 -35 38zM240 530h-252v58h37v137h61v-59h1q1 -1 2 -1q30 32 76 32q32 0 53.5 -18t21.5 -52v-97z" />
    <glyph glyph-name="uni0679.medi" unicode="&#x679;" horiz-adv-x="249" arabic-form="medial" 
d="M-57 55q0 21 16 39t41 18q37 0 54 21.5t17 70.5v186h103v-192q0 -44 16.5 -64.5t58.5 -21.5v-112q-92 0 -121 56q-40 -56 -128 -56q-24 0 -40.5 15.5t-16.5 39.5zM156 580q-22 0 -38 -14.5t-22 -38.5h95v15q0 38 -35 38zM250 470h-252v58h37v137h61v-59h1q1 -1 2 -1
q30 32 76 32q32 0 53.5 -18t21.5 -52v-97z" />
    <glyph glyph-name="uni06A4.fina" unicode="&#x6a4;" horiz-adv-x="858" arabic-form="final" 
d="M164 283q0 -84 34 -127.5t119 -43.5h69q43 0 58 -3q0 1 0.5 3t0.5 3q-31 22 -49.5 64t-18.5 87q0 94 56 153t153 59q101 0 157.5 -60.5t56.5 -161.5q0 -37 -12.5 -75.5t-32.5 -62.5q0 -2 2 -6h101v-112h-529q-189 0 -246 129q-25 54 -25 199v27h106v-72zM588 368
q-50 0 -77 -30.5t-27 -74.5q0 -55 38.5 -95t105.5 -53q66 43 66 133q0 54 -28.5 87t-77.5 33zM691 555h-91v91h91v-91zM569 555h-90v91h90v-91zM630 682h-91v92h91v-92z" />
    <glyph glyph-name="uni06A4.init" unicode="&#x6a4;" horiz-adv-x="535" arabic-form="initial" 
d="M251 0h-251q-24 0 -40 15.5t-16 40.5q0 24 15.5 40t40.5 16h75q38 0 62 -4q0 1 1 3v2q-80 41 -80 150q0 95 56 155t152 60q104 0 157.5 -62t53.5 -175q0 -119 -60.5 -180t-165.5 -61zM371 248q0 56 -25.5 87.5t-76.5 31.5q-52 0 -78 -33t-26 -78q0 -56 42.5 -89.5
t112.5 -41.5q51 35 51 123zM373 555h-91v91h91v-91zM251 555h-90v91h90v-91zM312 682h-91v92h91v-92z" />
    <glyph glyph-name="uni06A4.medi" unicode="&#x6a4;" horiz-adv-x="539" arabic-form="medial" 
d="M-56 56q0 24 15.5 40t40.5 16h67q43 0 58 -3q0 1 0.5 3t0.5 3q-31 22 -49.5 64t-18.5 87q0 94 56 153t153 59q101 0 157.5 -60.5t56.5 -161.5q0 -37 -12.5 -75.5t-32.5 -62.5q0 -2 2 -6h101v-112h-539q-24 0 -40 15.5t-16 40.5zM269 368q-50 0 -77 -30.5t-27 -74.5
q0 -55 38.5 -95t105.5 -53q66 43 66 133q0 54 -28.5 87t-77.5 33zM375 555h-91v91h91v-91zM253 555h-90v91h90v-91zM314 682h-91v92h91v-92z" />
    <glyph glyph-name="uni06A6.fina" unicode="&#x6a6;" horiz-adv-x="858" arabic-form="final" 
d="M164 283q0 -84 34 -127.5t119 -43.5h69q43 0 58 -3q0 1 0.5 3t0.5 3q-31 22 -49.5 64t-18.5 87q0 94 56 153t153 59q101 0 157.5 -60.5t56.5 -161.5q0 -37 -12.5 -75.5t-32.5 -62.5q0 -2 2 -6h101v-112h-529q-189 0 -246 129q-25 54 -25 199v27h106v-72zM588 368
q-50 0 -77 -30.5t-27 -74.5q0 -55 38.5 -95t105.5 -53q66 43 66 133q0 54 -28.5 87t-77.5 33zM691 555h-91v91h91v-91zM569 555h-90v91h90v-91zM691 682h-91v92h91v-92zM569 682h-90v92h90v-92z" />
    <glyph glyph-name="uni06A6.init" unicode="&#x6a6;" horiz-adv-x="535" arabic-form="initial" 
d="M251 0h-251q-24 0 -40 15.5t-16 40.5q0 24 15.5 40t40.5 16h75q38 0 62 -4q0 1 1 3v2q-80 41 -80 150q0 95 56 155t152 60q104 0 157.5 -62t53.5 -175q0 -119 -60.5 -180t-165.5 -61zM371 248q0 56 -25.5 87.5t-76.5 31.5q-52 0 -78 -33t-26 -78q0 -56 42.5 -89.5
t112.5 -41.5q51 35 51 123zM373 555h-91v91h91v-91zM251 555h-90v91h90v-91zM373 682h-91v92h91v-92zM251 682h-90v92h90v-92z" />
    <glyph glyph-name="uni06A6.medi" unicode="&#x6a6;" horiz-adv-x="539" arabic-form="medial" 
d="M-56 56q0 24 15.5 40t40.5 16h67q43 0 58 -3q0 1 0.5 3t0.5 3q-31 22 -49.5 64t-18.5 87q0 94 56 153t153 59q101 0 157.5 -60.5t56.5 -161.5q0 -37 -12.5 -75.5t-32.5 -62.5q0 -2 2 -6h101v-112h-539q-24 0 -40 15.5t-16 40.5zM269 368q-50 0 -77 -30.5t-27 -74.5
q0 -55 38.5 -95t105.5 -53q66 43 66 133q0 54 -28.5 87t-77.5 33zM375 555h-91v91h91v-91zM253 555h-90v91h90v-91zM375 682h-91v92h91v-92zM253 682h-90v92h90v-92z" />
    <glyph glyph-name="uni0684.fina" unicode="&#x684;" horiz-adv-x="558" arabic-form="final" 
d="M404 112l4 6q-11 10 -18 29t-9 35t-5.5 49t-5.5 48q-11 87 -92 87q-64 0 -126 -35q-7 15 -22 45t-22 45q82 57 176 57q174 0 194 -201q11 -106 26 -135q16 -30 47 -30h7v-112h-293q-51 0 -76 -25t-25 -63q0 -82 119 -82q35 0 70 7l15 -102q-41 -12 -104 -12
q-95 0 -150.5 47.5t-55.5 137.5q0 99 64.5 151.5t159.5 52.5h122zM465 -201h-61v64h61v-64zM465 -120h-61v66h61v-66z" />
    <glyph glyph-name="uni0684.init" unicode="&#x684;" horiz-adv-x="505" arabic-form="initial" 
d="M0 0q-24 0 -40 15.5t-16 40.5q0 24 16 40t40 16h355l3 6q-15 13 -21.5 40.5t-11 71t-9.5 66.5q-15 70 -88 70q-65 0 -125 -35l-45 90q83 57 176 57q172 0 193 -185q2 -13 4.5 -37.5t4 -35.5t4 -29.5t6 -28t8 -20.5t11 -17.5t15.5 -10.5v-114h-480zM270 -301h-91v91h91
v-91zM270 -174h-91v92h91v-92z" />
    <glyph glyph-name="uni0684.medi" unicode="&#x684;" horiz-adv-x="508" arabic-form="medial" 
d="M234 478q174 0 194 -201q11 -106 26 -135q16 -30 47 -30h7v-112h-508q-24 0 -40 15.5t-16 40.5q0 24 16 40t40 16h354l4 6q-11 10 -18 29t-9 35t-5.5 49t-5.5 48q-11 87 -92 87q-64 0 -126 -35q-7 15 -22 45t-22 45q82 57 176 57zM270 -301h-91v91h91v-91zM270 -174h-91
v92h91v-92z" />
    <glyph glyph-name="uni0683.fina" unicode="&#x683;" horiz-adv-x="558" arabic-form="final" 
d="M404 112l4 6q-11 10 -18 29t-9 35t-5.5 49t-5.5 48q-11 87 -92 87q-64 0 -126 -35q-7 15 -22 45t-22 45q82 57 176 57q174 0 194 -201q11 -106 26 -135q16 -30 47 -30h7v-112h-293q-51 0 -76 -25t-25 -63q0 -82 119 -82q35 0 70 7l15 -102q-41 -12 -104 -12
q-95 0 -150.5 47.5t-55.5 137.5q0 99 64.5 151.5t159.5 52.5h122zM475 -115h-61v64h61v-64zM398 -115h-62v64h62v-64z" />
    <glyph glyph-name="uni0683.init" unicode="&#x683;" horiz-adv-x="505" arabic-form="initial" 
d="M0 0q-24 0 -40 15.5t-16 40.5q0 24 16 40t40 16h355l3 6q-15 13 -21.5 40.5t-11 71t-9.5 66.5q-15 70 -88 70q-65 0 -125 -35l-45 90q83 57 176 57q172 0 193 -185q2 -13 4.5 -37.5t4 -35.5t4 -29.5t6 -28t8 -20.5t11 -17.5t15.5 -10.5v-114h-480zM341 -173h-91v91h91
v-91zM219 -173h-90v91h90v-91z" />
    <glyph glyph-name="uni0683.medi" unicode="&#x683;" horiz-adv-x="508" arabic-form="medial" 
d="M234 478q174 0 194 -201q11 -106 26 -135q16 -30 47 -30h7v-112h-508q-24 0 -40 15.5t-16 40.5q0 24 16 40t40 16h354l4 6q-11 10 -18 29t-9 35t-5.5 49t-5.5 48q-11 87 -92 87q-64 0 -126 -35q-7 15 -22 45t-22 45q82 57 176 57zM341 -173h-91v91h91v-91zM219 -173h-90
v91h90v-91z" />
    <glyph glyph-name="uni0686.fina" unicode="&#x686;" horiz-adv-x="558" arabic-form="final" 
d="M404 112l4 6q-11 10 -18 29t-9 35t-5.5 49t-5.5 48q-11 87 -92 87q-64 0 -126 -35q-7 15 -22 45t-22 45q82 57 176 57q174 0 194 -201q11 -106 26 -135q16 -30 47 -30h7v-112h-293q-51 0 -76 -25t-25 -63q0 -82 119 -82q35 0 70 7l15 -102q-41 -12 -104 -12
q-95 0 -150.5 47.5t-55.5 137.5q0 99 64.5 151.5t159.5 52.5h122zM439 -66h61v-65h-61v65zM361 -66h62v-65h-62v65zM400 -148h61v-65h-61v65z" />
    <glyph glyph-name="uni0686.init" unicode="&#x686;" horiz-adv-x="505" arabic-form="initial" 
d="M0 0q-24 0 -40 15.5t-16 40.5q0 24 16 40t40 16h355l3 6q-15 13 -21.5 40.5t-11 71t-9.5 66.5q-15 70 -88 70q-65 0 -125 -35l-45 90q83 57 176 57q172 0 193 -185q2 -13 4.5 -37.5t4 -35.5t4 -29.5t6 -28t8 -20.5t11 -17.5t15.5 -10.5v-114h-480zM267 -82h91v-91h-91v91
zM146 -82h90v-91h-90v91zM206 -210h91v-90h-91v90z" />
    <glyph glyph-name="uni0686.medi" unicode="&#x686;" horiz-adv-x="508" arabic-form="medial" 
d="M234 478q174 0 194 -201q11 -106 26 -135q16 -30 47 -30h7v-112h-508q-24 0 -40 15.5t-16 40.5q0 24 16 40t40 16h354l4 6q-11 10 -18 29t-9 35t-5.5 49t-5.5 48q-11 87 -92 87q-64 0 -126 -35q-7 15 -22 45t-22 45q82 57 176 57zM269 -82h91v-91h-91v91zM148 -82h90v-91
h-90v91zM208 -210h91v-90h-91v90z" />
    <glyph glyph-name="uni0687.fina" unicode="&#x687;" horiz-adv-x="558" arabic-form="final" 
d="M404 112l4 6q-11 10 -18 29t-9 35t-5.5 49t-5.5 48q-11 87 -92 87q-64 0 -126 -35q-7 15 -22 45t-22 45q82 57 176 57q174 0 194 -201q11 -106 26 -135q16 -30 47 -30h7v-112h-293q-51 0 -76 -25t-25 -63q0 -82 119 -82q35 0 70 7l15 -102q-41 -12 -104 -12
q-95 0 -150.5 47.5t-55.5 137.5q0 99 64.5 151.5t159.5 52.5h122zM511 -180h-61v64h61v-64zM434 -180h-62v64h62v-64zM511 -99h-61v66h61v-66zM434 -99h-62v66h62v-66z" />
    <glyph glyph-name="uni0687.init" unicode="&#x687;" horiz-adv-x="505" arabic-form="initial" 
d="M0 0q-24 0 -40 15.5t-16 40.5q0 24 16 40t40 16h355l3 6q-15 13 -21.5 40.5t-11 71t-9.5 66.5q-15 70 -88 70q-65 0 -125 -35l-45 90q83 57 176 57q172 0 193 -185q2 -13 4.5 -37.5t4 -35.5t4 -29.5t6 -28t8 -20.5t11 -17.5t15.5 -10.5v-114h-480zM346 -301h-91v91h91
v-91zM224 -301h-90v91h90v-91zM346 -174h-91v92h91v-92zM224 -174h-90v92h90v-92z" />
    <glyph glyph-name="uni0687.medi" unicode="&#x687;" horiz-adv-x="508" arabic-form="medial" 
d="M234 478q174 0 194 -201q11 -106 26 -135q16 -30 47 -30h7v-112h-508q-24 0 -40 15.5t-16 40.5q0 24 16 40t40 16h354l4 6q-11 10 -18 29t-9 35t-5.5 49t-5.5 48q-11 87 -92 87q-64 0 -126 -35q-7 15 -22 45t-22 45q82 57 176 57zM346 -301h-91v91h91v-91zM224 -301h-90
v91h90v-91zM346 -174h-91v92h91v-92zM224 -174h-90v92h90v-92z" />
    <glyph glyph-name="uni068D.fina" unicode="&#x68d;" horiz-adv-x="506" arabic-form="final" 
d="M345 112v156q0 99 -96 99q-74 0 -125 -39l-55 88q74 61 185 61q195 0 195 -184v-181h57v-112h-448v112h287zM351 -173h-91v91h91v-91zM229 -173h-90v91h90v-91z" />
    <glyph glyph-name="uni068C.fina" unicode="&#x68c;" horiz-adv-x="506" arabic-form="final" 
d="M345 112v156q0 99 -96 99q-74 0 -125 -39l-55 88q74 61 185 61q195 0 195 -184v-181h57v-112h-448v112h287zM351 555h-91v91h91v-91zM229 555h-90v91h90v-91z" />
    <glyph glyph-name="uni068E.fina" unicode="&#x68e;" horiz-adv-x="506" arabic-form="final" 
d="M345 112v156q0 99 -96 99q-74 0 -125 -39l-55 88q74 61 185 61q195 0 195 -184v-181h57v-112h-448v112h287zM351 555h-91v91h91v-91zM229 555h-90v91h90v-91zM290 682h-91v92h91v-92z" />
    <glyph glyph-name="uni0688.fina" unicode="&#x688;" horiz-adv-x="506" arabic-form="final" 
d="M345 112v156q0 99 -96 99q-74 0 -125 -39l-55 88q74 61 185 61q195 0 195 -184v-181h57v-112h-448v112h287zM280 665q-22 0 -38 -14.5t-22 -38.5h95v15q0 38 -35 38zM374 555h-252v58h37v137h61v-59l1 -1h2q30 32 76 32q32 0 53.5 -18t21.5 -52v-97z" />
    <glyph glyph-name="uni0698.fina" unicode="&#x698;" horiz-adv-x="228" arabic-form="final" 
d="M-54 -96q66 1 93.5 29t27.5 85v372h103v-278h58v-112h-58q-2 -103 -55 -154t-169 -52v110zM220 470h-91v91h91v-91zM98 470h-90v91h90v-91zM159 597h-91v92h91v-92z" />
    <glyph glyph-name="uni06A9.fina" unicode="&#x6a9;" horiz-adv-x="806" arabic-form="final" 
d="M371 417v75l379 244l50 -77l-305 -196l163 -98q32 -19 51.5 -41t27.5 -48.5t10 -46t2 -51.5v-66h57v-112h-483q-265 0 -265 252v100h103v-69q0 -85 34.5 -128t121.5 -43h329v60q0 79 -49 108q-45 27 -129.5 78.5t-96.5 58.5z" />
    <glyph glyph-name="uni06A9.init" unicode="&#x6a9;" horiz-adv-x="504" arabic-form="initial" 
d="M-58 56q0 25 16 40.5t42 15.5h333v60q0 39 -10 65t-39 43l-226 137v75l379 244l51 -77l-306 -196l163 -98q32 -19 51.5 -41t27.5 -48.5t10 -46t2 -51.5v-178h-437q-26 0 -41.5 15.5t-15.5 40.5z" />
    <glyph glyph-name="uni06A9.medi" unicode="&#x6a9;" horiz-adv-x="504" arabic-form="medial" 
d="M-58 56q0 25 16 40.5t42 15.5h333v60q0 39 -10 65t-39 43l-226 137v75l379 244l51 -77l-306 -196l163 -98q32 -19 51.5 -41t27.5 -48.5t10 -46t2 -51.5v-66h68v-112h-505q-26 0 -41.5 15.5t-15.5 40.5z" />
    <glyph glyph-name="uni06AF.fina" unicode="&#x6af;" horiz-adv-x="806" arabic-form="final" 
d="M371 417v75l379 244l50 -77l-305 -196l163 -98q32 -19 51.5 -41t27.5 -48.5t10 -46t2 -51.5v-66h57v-112h-483q-265 0 -265 252v100h103v-69q0 -85 34.5 -128t121.5 -43h329v60q0 79 -49 108q-45 27 -129.5 78.5t-96.5 58.5zM660 835l31 -51l-376 -242l-32 51z" />
    <glyph glyph-name="uni06AF.init" unicode="&#x6af;" horiz-adv-x="504" arabic-form="initial" 
d="M-58 56q0 25 16 40.5t42 15.5h333v60q0 39 -10 65t-39 43l-226 137v75l379 244l51 -77l-306 -196l163 -98q32 -19 51.5 -41t27.5 -48.5t10 -46t2 -51.5v-178h-437q-26 0 -41.5 15.5t-15.5 40.5zM370 840l31 -51l-376 -242l-32 51z" />
    <glyph glyph-name="uni06AF.medi" unicode="&#x6af;" horiz-adv-x="504" arabic-form="medial" 
d="M-58 56q0 25 16 40.5t42 15.5h333v60q0 39 -10 65t-39 43l-226 137v75l379 244l51 -77l-306 -196l163 -98q32 -19 51.5 -41t27.5 -48.5t10 -46t2 -51.5v-66h68v-112h-505q-26 0 -41.5 15.5t-15.5 40.5zM370 840l31 -51l-376 -242l-32 51z" />
    <glyph glyph-name="uni06B3.fina" unicode="&#x6b3;" horiz-adv-x="806" arabic-form="final" 
d="M371 417v75l379 244l50 -77l-305 -196l163 -98q32 -19 51.5 -41t27.5 -48.5t10 -46t2 -51.5v-66h57v-112h-483q-265 0 -265 252v100h103v-69q0 -85 34.5 -128t121.5 -43h329v60q0 79 -49 108q-45 27 -129.5 78.5t-96.5 58.5zM493 -301h-91v91h91v-91zM493 -174h-91v92h91
v-92zM660 835l31 -51l-376 -242l-32 51z" />
    <glyph glyph-name="uni06B3.init" unicode="&#x6b3;" horiz-adv-x="504" arabic-form="initial" 
d="M-58 56q0 25 16 40.5t42 15.5h333v60q0 39 -10 65t-39 43l-226 137v75l379 244l51 -77l-306 -196l163 -98q32 -19 51.5 -41t27.5 -48.5t10 -46t2 -51.5v-178h-437q-26 0 -41.5 15.5t-15.5 40.5zM283 -301h-91v91h91v-91zM283 -174h-91v92h91v-92zM370 840l31 -51
l-376 -242l-32 51z" />
    <glyph glyph-name="uni06B3.medi" unicode="&#x6b3;" horiz-adv-x="504" arabic-form="medial" 
d="M-58 56q0 25 16 40.5t42 15.5h333v60q0 39 -10 65t-39 43l-226 137v75l379 244l51 -77l-306 -196l163 -98q32 -19 51.5 -41t27.5 -48.5t10 -46t2 -51.5v-66h68v-112h-505q-26 0 -41.5 15.5t-15.5 40.5zM283 -301h-91v91h91v-91zM283 -174h-91v92h91v-92zM370 840l31 -51
l-376 -242l-32 51z" />
    <glyph glyph-name="uni06B1.fina" unicode="&#x6b1;" horiz-adv-x="806" arabic-form="final" 
d="M371 417v75l379 244l50 -77l-305 -196l163 -98q32 -19 51.5 -41t27.5 -48.5t10 -46t2 -51.5v-66h57v-112h-483q-265 0 -265 252v100h103v-69q0 -85 34.5 -128t121.5 -43h329v60q0 79 -49 108q-45 27 -129.5 78.5t-96.5 58.5zM660 835l31 -51l-376 -242l-32 51zM464 779
h-61v64h61v-64zM376 715h-61v64h61v-64z" />
    <glyph glyph-name="uni06B1.init" unicode="&#x6b1;" horiz-adv-x="504" arabic-form="initial" 
d="M-58 56q0 25 16 40.5t42 15.5h333v60q0 39 -10 65t-39 43l-226 137v75l379 244l51 -77l-306 -196l163 -98q32 -19 51.5 -41t27.5 -48.5t10 -46t2 -51.5v-178h-437q-26 0 -41.5 15.5t-15.5 40.5zM370 840l31 -51l-376 -242l-32 51zM197 779h-61v64h61v-64zM109 715h-61v64
h61v-64z" />
    <glyph glyph-name="uni06B1.medi" unicode="&#x6b1;" horiz-adv-x="504" arabic-form="medial" 
d="M-58 56q0 25 16 40.5t42 15.5h333v60q0 39 -10 65t-39 43l-226 137v75l379 244l51 -77l-306 -196l163 -98q32 -19 51.5 -41t27.5 -48.5t10 -46t2 -51.5v-66h68v-112h-505q-26 0 -41.5 15.5t-15.5 40.5zM370 840l31 -51l-376 -242l-32 51zM197 779h-61v64h61v-64zM109 715
h-61v64h61v-64z" />
    <glyph glyph-name="uni06C0.fina" unicode="&#x6c0;" horiz-adv-x="541" arabic-form="final" 
d="M364 478h105v-272q0 -46 14.5 -69.5t57.5 -24.5v-112h-11q-56 0 -93 25t-48 63q-29 -26 -71 -41.5t-80 -15.5q-89 0 -134.5 43t-45.5 117q0 28 7.5 55.5t28.5 58.5t53.5 55.5t88.5 45t128 29.5v43zM245 139q120 0 120 127v66q-114 -13 -156.5 -50.5t-42.5 -76.5
q0 -30 21 -48t58 -18zM273 720q49 0 87 -26l-26 -51q-30 18 -63 18q-22 0 -34.5 -11t-12.5 -27q0 -35 41 -35h94v-58h-229v58h37l2 2q-10 13 -10 35q0 35 28 65t86 30z" />
    <glyph glyph-name="uni06C1.fina" unicode="&#x6c1;" horiz-adv-x="518" arabic-form="final" 
d="M441 237v-21q0 -54 16 -79t61 -25v-112q-95 0 -138.5 41.5t-43.5 134.5v46q0 47 -22 73t-65 26q-39 0 -62.5 -25.5t-23.5 -76.5q0 -54 21 -80.5t75 -26.5h28v-112h-51q-92 0 -135 55t-43 152q0 109 51 167.5t145 58.5q87 0 137 -50t50 -146z" />
    <glyph glyph-name="uni06C1.init" unicode="&#x6c1;" horiz-adv-x="229" arabic-form="initial" 
d="M68 455h103v-252q0 -203 -171 -203q-24 0 -40.5 15.5t-16.5 39.5t16.5 40t40.5 17q41 1 54.5 25t13.5 74v244zM131 -119l48 -29q-46 -85 -108 -85q-29 0 -46.5 16t-17.5 44q0 15 5 33l39 122h66l-41 -130q-2 -10 -2 -12q0 -8 7 -8q16 0 50 49z" />
    <glyph glyph-name="uni06C1.medi" unicode="&#x6c1;" horiz-adv-x="417" arabic-form="medial" 
d="M-57 55q0 24 16.5 40.5t40.5 16.5q42 0 56.5 23.5t14.5 73.5v79h103v-204q0 -80 29 -119h4q23 147 162 147h48v-112h-44q-85 0 -85 -117q8 -4 58 -21l-31 -92q-118 27 -173.5 88.5t-63.5 157.5l-5 5q-27 -21 -73 -21q-24 0 -40.5 15.5t-16.5 39.5zM126 -256l48 -29
q-46 -85 -108 -85q-29 0 -46.5 16t-17.5 44q0 15 5 33l39 122h66l-41 -130q-2 -10 -2 -12q0 -8 7 -8q16 0 50 49z" />
    <glyph glyph-name="uni06BE.fina" unicode="&#x6be;" horiz-adv-x="818" arabic-form="final" 
d="M50 0v112h110q37 0 57 -5q0 2 2 4q-24 17 -37.5 50.5t-13.5 70.5q0 71 42 120t112 56q-14 28 -20 42q40 26 98 43t110 17q234 0 234 -267v-12q0 -64 15 -91t59 -28v-112q-106 0 -140 62q-59 -62 -158 -62h-470zM491 115v-5q76 0 110.5 34t34.5 105q0 150 -131 150
q-34 0 -71 -15q44 -17 68 -57.5t24 -99.5v-9q-2 -65 -35 -103zM346 313q-36 0 -55.5 -25.5t-19.5 -60.5q0 -39 25 -69t73 -39q51 27 51 103q0 39 -18 65t-56 26z" />
    <glyph glyph-name="uni06BE.init" unicode="&#x6be;" horiz-adv-x="691" arabic-form="initial" 
d="M-56 55q0 25 16 41t40 16h48q39 0 59 -4l2 4q-24 16 -37.5 49t-13.5 71q0 71 42 120t112 56q-14 28 -20 42q40 26 98 43t110 17q233 0 233 -264q0 -125 -64.5 -185.5t-158.5 -60.5h-410q-24 0 -40 15.5t-16 39.5zM381 115v-5q76 0 110 34.5t34 104.5q0 150 -130 150
q-34 0 -71 -15q44 -17 68 -57.5t24 -99.5v-9q-2 -63 -35 -103zM236 313q-36 0 -55.5 -25.5t-19.5 -60.5q0 -39 25 -69t73 -39q51 28 51 103q0 39 -18 65t-56 26z" />
    <glyph glyph-name="uni06BE.medi" unicode="&#x6be;" horiz-adv-x="708" arabic-form="medial" 
d="M58 232q0 71 42 120t112 56q-14 28 -20 42q40 26 98 43t110 17q234 0 234 -267v-12q0 -64 15 -91t59 -28v-112q-106 0 -140 62q-59 -62 -158 -62h-410q-25 0 -40.5 15.5t-15.5 40.5q0 24 15.5 40t40.5 16h50q37 0 57 -5q0 2 2 4q-24 17 -37.5 50.5t-13.5 70.5zM381 115
v-5q76 0 110.5 34t34.5 105q0 150 -131 150q-34 0 -71 -15q44 -17 68 -57.5t24 -99.5v-9q-2 -65 -35 -103zM236 313q-36 0 -55.5 -25.5t-19.5 -60.5q0 -39 25 -69t73 -39q51 27 51 103q0 39 -18 65t-56 26z" />
    <glyph glyph-name="uni06D2.fina" unicode="&#x6d2;" horiz-adv-x="298" arabic-form="final" 
d="M727 -211h-669v150q0 88 47 130.5t129 42.5h64v-112h-59q-74 0 -74 -75v-23h562v-113z" />
    <glyph glyph-name="uni06D3.fina" unicode="&#x6d3;" horiz-adv-x="463" arabic-form="final" 
d="M839 -211h-781v381q0 85 47 131.5t122 46.5h179v-236h57v-112h-163v229h-57q-79 0 -79 -95v-232h675v-113zM278 626q49 0 87 -26l-26 -51q-30 18 -63 18q-22 0 -34.5 -11t-12.5 -27q0 -35 41 -35h94v-58h-229v58h37l2 2q-10 13 -10 35q0 35 28 65t86 30z" />
    <glyph glyph-name="uni06AD.fina" unicode="&#x6ad;" horiz-adv-x="778" arabic-form="final" 
d="M600 726h103v-528q0 -43 16 -64t59 -22v-112q-93 0 -122 56q-25 -33 -54 -44.5t-76 -11.5h-202q-264 0 -264 252v103h103v-72q0 -86 33.5 -128.5t121.5 -42.5h207q44 0 59.5 22.5t15.5 64.5v527zM416 496q49 0 87 -26l-26 -51q-30 18 -63 18q-22 0 -34.5 -11t-12.5 -27
q0 -35 41 -35h94v-58h-229v58h37l2 2q-10 13 -10 35q0 35 28 65t86 30zM510 530h-91v91h91v-91zM388 530h-90v91h90v-91zM449 657h-91v92h91v-92z" />
    <glyph glyph-name="uni06AD.init" unicode="&#x6ad;" horiz-adv-x="504" arabic-form="initial" 
d="M-58 56q0 25 16 40.5t42 15.5h333v60q0 39 -10 65t-39 43l-226 137v75l379 244l51 -77l-306 -196l163 -98q32 -19 51.5 -41t27.5 -48.5t10 -46t2 -51.5v-178h-437q-26 0 -41.5 15.5t-15.5 40.5zM238 659h-61v64h61v-64zM161 659h-62v64h62v-64zM199 740h-61v66h61v-66z
" />
    <glyph glyph-name="uni06AD.medi" unicode="&#x6ad;" horiz-adv-x="504" arabic-form="medial" 
d="M-58 56q0 25 16 40.5t42 15.5h333v60q0 39 -10 65t-39 43l-226 137v75l379 244l51 -77l-306 -196l163 -98q32 -19 51.5 -41t27.5 -48.5t10 -46t2 -51.5v-66h68v-112h-505q-26 0 -41.5 15.5t-15.5 40.5zM238 659h-61v64h61v-64zM161 659h-62v64h62v-64zM199 740h-61v66h61
v-66z" />
    <glyph glyph-name="uni06C7.fina" unicode="&#x6c7;" horiz-adv-x="541" arabic-form="final" 
d="M280 478q97 0 150 -59.5t53 -175.5v-131h58v-112h-58q-3 -106 -63 -164t-167 -58h-152v113h149q64 0 93.5 34.5t29.5 77.5h-89q-226 0 -226 229q0 116 57.5 181t164.5 65zM377 112v120q0 133 -101 133q-52 0 -82.5 -34t-30.5 -100q0 -119 112 -119h102zM251 632l1 3
q-22 16 -22 47q0 27 19 48t50 21q35 0 55.5 -23t20.5 -55q0 -28 -17.5 -51.5t-51.5 -33.5l-145 -40v57z" />
    <glyph glyph-name="uni06C6.fina" unicode="&#x6c6;" horiz-adv-x="541" arabic-form="final" 
d="M280 478q97 0 150 -59.5t53 -175.5v-131h58v-112h-58q-3 -106 -63 -164t-167 -58h-152v113h149q64 0 93.5 34.5t29.5 77.5h-89q-226 0 -226 229q0 116 57.5 181t164.5 65zM377 112v120q0 133 -101 133q-52 0 -82.5 -34t-30.5 -100q0 -119 112 -119h102zM238 555l-86 172
l42 21l71 -121l74 121l42 -22l-85 -171h-58z" />
    <glyph glyph-name="uni06C8.fina" unicode="&#x6c8;" horiz-adv-x="541" arabic-form="final" 
d="M280 478q97 0 150 -59.5t53 -175.5v-131h58v-112h-58q-3 -106 -63 -164t-167 -58h-152v113h149q64 0 93.5 34.5t29.5 77.5h-89q-226 0 -226 229q0 116 57.5 181t164.5 65zM377 112v120q0 133 -101 133q-52 0 -82.5 -34t-30.5 -100q0 -119 112 -119h102zM299 728v-173h-63
v173h63z" />
    <glyph glyph-name="uni06CB.fina" unicode="&#x6cb;" horiz-adv-x="541" arabic-form="final" 
d="M280 478q97 0 150 -59.5t53 -175.5v-131h58v-112h-58q-3 -106 -63 -164t-167 -58h-152v113h149q64 0 93.5 34.5t29.5 77.5h-89q-226 0 -226 229q0 116 57.5 181t164.5 65zM377 112v120q0 133 -101 133q-52 0 -82.5 -34t-30.5 -100q0 -119 112 -119h102zM374 555h-91v91
h91v-91zM252 555h-90v91h90v-91zM313 682h-91v92h91v-92z" />
    <glyph glyph-name="uni06C5.fina" unicode="&#x6c5;" horiz-adv-x="541" arabic-form="final" 
d="M280 478q97 0 150 -59.5t53 -175.5v-131h58v-112h-58q-3 -106 -63 -164t-167 -58h-152v113h149q59 0 91 32h-170v44h196q6 19 6 36h-89q-226 0 -226 229q0 116 57.5 181t164.5 65zM377 112v120q0 133 -101 133q-52 0 -82.5 -34t-30.5 -100q0 -119 112 -119h102z" />
    <glyph glyph-name="uni06C9.fina" unicode="&#x6c9;" horiz-adv-x="541" arabic-form="final" 
d="M280 478q97 0 150 -59.5t53 -175.5v-131h58v-112h-58q-3 -106 -63 -164t-167 -58h-152v113h149q64 0 93.5 34.5t29.5 77.5h-89q-226 0 -226 229q0 116 57.5 181t164.5 65zM377 112v120q0 133 -101 133q-52 0 -82.5 -34t-30.5 -100q0 -119 112 -119h102zM153 576l86 172
h58l85 -171l-42 -22l-74 121l-71 -121z" />
    <glyph glyph-name="uni06D0.fina" unicode="&#x6d0;" horiz-adv-x="864" arabic-form="final" 
d="M580 0h-257q-265 0 -265 252v103h103v-72q0 -85 34.5 -128t121.5 -43h159v187q0 87 47.5 133t128.5 46h154v-366h58v-112h-162v364h-55q-37 0 -52 -21t-15 -62v-281zM455 -301h-91v91h91v-91zM455 -174h-91v92h91v-92z" />
    <glyph glyph-name="uni06D0.init" unicode="&#x6d0;" horiz-adv-x="229" arabic-form="initial" 
d="M68 455h103v-252q0 -203 -171 -203q-24 0 -40.5 15.5t-16.5 39.5t16.5 40t40.5 17q41 1 54.5 25t13.5 74v244zM148 -301h-91v91h91v-91zM148 -174h-91v92h91v-92z" />
    <glyph glyph-name="uni06D0.medi" unicode="&#x6d0;" horiz-adv-x="249" arabic-form="medial" 
d="M-57 55q0 21 16 39t41 18q37 0 54 21.5t17 70.5v186h103v-192q0 -44 16.5 -64.5t58.5 -21.5v-112q-92 0 -121 56q-40 -56 -128 -56q-24 0 -40.5 15.5t-16.5 39.5zM170 -301h-91v91h91v-91zM170 -174h-91v92h91v-92z" />
    <glyph glyph-name="uni0649.init" unicode="&#x649;" horiz-adv-x="229" arabic-form="initial" 
d="M68 455h103v-252q0 -203 -171 -203q-24 0 -40.5 15.5t-16.5 39.5t16.5 40t40.5 17q41 1 54.5 25t13.5 74v244z" />
    <glyph glyph-name="uni0649.medi" unicode="&#x649;" horiz-adv-x="249" arabic-form="medial" 
d="M-57 55q0 21 16 39t41 18q37 0 54 21.5t17 70.5v186h103v-192q0 -44 16.5 -64.5t58.5 -21.5v-112q-92 0 -121 56q-40 -56 -128 -56q-24 0 -40.5 15.5t-16.5 39.5z" />
    <glyph glyph-name="uni06CC.fina" unicode="&#x6cc;" horiz-adv-x="864" arabic-form="final" 
d="M580 0h-257q-265 0 -265 252v103h103v-72q0 -85 34.5 -128t121.5 -43h159v187q0 87 47.5 133t128.5 46h154v-366h58v-112h-162v364h-55q-37 0 -52 -21t-15 -62v-281z" />
    <glyph glyph-name="uni06CC.init" unicode="&#x6cc;" horiz-adv-x="229" arabic-form="initial" 
d="M68 455h103v-252q0 -203 -171 -203q-24 0 -40.5 15.5t-16.5 39.5t16.5 40t40.5 17q41 1 54.5 25t13.5 74v244zM220 -173h-91v91h91v-91zM98 -173h-90v91h90v-91z" />
    <glyph glyph-name="uni06CC.medi" unicode="&#x6cc;" horiz-adv-x="249" arabic-form="medial" 
d="M-57 55q0 21 16 39t41 18q37 0 54 21.5t17 70.5v186h103v-192q0 -44 16.5 -64.5t58.5 -21.5v-112q-92 0 -121 56q-40 -56 -128 -56q-24 0 -40.5 15.5t-16.5 39.5zM230 -173h-91v91h91v-91zM108 -173h-90v91h90v-91z" />
    <glyph glyph-name="uni0651064C" unicode="&#xfc5e;" horiz-adv-x="0" arabic-form="isolated" 
d="M61 157q-10 -3 -123 -34l-9 3t-8 2v56q0 28 -27 28q-3 0 -9.5 -0.5t-9.5 -0.5v42q12 3 31 3q60 0 60 -57v-15l43 11q0 1 1 3q-18 13 -18 47q0 23 18 42t47 19q32 0 50.5 -21t18.5 -53q0 -25 -16.5 -46t-48.5 -29zM77 235q0 25 -19 25q-22 0 -22 -22q0 -24 26 -27
q15 5 15 24zM11 23l-3 -1q-4 -21 -20.5 -33t-39.5 -12q-28 0 -44.5 15.5t-16.5 58.5v18l53 16v-36q0 -20 16 -20q7 0 12.5 6t5.5 14v45l50 15v-35q0 -20 18 -20t18 20v47l52 15v-55q0 -77 -63 -77q-29 0 -38 19z" />
    <glyph glyph-name="uni0651064D" unicode="&#xfc5f;" horiz-adv-x="0" arabic-form="isolated" 
d="M105 158v-53l-210 -51v51zM105 76v-51l-210 -51v51zM11 201l-3 -1q-4 -22 -20.5 -34t-39.5 -12q-61 0 -61 75v18l53 15v-36q0 -20 16 -20q7 0 12.5 6t5.5 14v46l50 14v-35q0 -20 18 -20t18 20v47l52 15v-55q0 -77 -63 -77q-29 0 -38 20z" />
    <glyph glyph-name="uni0651064E" unicode="&#xfc60;" horiz-adv-x="0" arabic-form="isolated" 
d="M105 215v-54l-210 -50v52zM11 22l-3 -1q-4 -22 -20.5 -34t-39.5 -12q-61 0 -61 74v18l53 16v-36q0 -20 16 -20q7 0 12.5 6t5.5 14v46l50 14v-35q0 -20 18 -20t18 20v47l52 15v-55q0 -77 -63 -77q-29 0 -38 20z" />
    <glyph glyph-name="uni0651064F" unicode="&#xfc61;" horiz-adv-x="0" arabic-form="isolated" 
d="M-12 182v2q-19 17 -19 45q0 24 17.5 43.5t47.5 19.5q32 0 51 -20.5t19 -48.5q0 -61 -65 -78l-143 -39v51zM56 222q0 25 -20 25q-22 0 -22 -21q0 -24 26 -28q16 6 16 24zM11 21l-3 -1q-4 -22 -20.5 -34t-39.5 -12q-61 0 -61 75v18l53 15v-36q0 -20 16 -20q7 0 12.5 6
t5.5 14v46l50 14v-35q0 -20 18 -20t18 20v47l52 15v-55q0 -77 -63 -77q-29 0 -38 20z" />
    <glyph glyph-name="uni06510650" unicode="&#xfc62;" horiz-adv-x="0" arabic-form="isolated" 
d="M105 81v-55l-210 -51v53zM11 132l-3 -1q-4 -21 -21 -33.5t-39 -12.5q-61 0 -61 75v18l53 15v-36q0 -19 16 -19q7 0 12.5 5.5t5.5 13.5v46l50 15v-35q0 -20 18 -20t18 20v46l52 16v-55q0 -78 -63 -78q-28 0 -38 20z" />
    <glyph glyph-name="uni06510670" unicode="&#xfc63;" horiz-adv-x="0" arabic-form="isolated" 
d="M11 21l-3 -1q-4 -22 -20.5 -34t-39.5 -12q-61 0 -61 75v18l53 15v-36q0 -20 16 -20q7 0 12.5 6t5.5 14v46l50 14v-35q0 -20 18 -20t18 20v47l52 15v-55q0 -77 -63 -77q-29 0 -38 20zM33 139h-53v52q0 52 -13 100h56q10 -34 10 -95v-57z" />
    <glyph glyph-name="uni06260631.fina" unicode="&#xfc64;" arabic-form="final" 
d="M-54 -96q120 0 120 96v390h104v-102h152v167h104v-284q0 -33 12 -46t42 -13h14v-112h-34q-69 0 -103.5 31.5t-34.5 109.5v33h-152v-163q0 -114 -51.5 -165t-172.5 -52v110zM386 745q49 0 87 -26l-26 -51q-30 18 -63 18q-22 0 -34.5 -11t-12.5 -27q0 -35 41 -35h94v-58
h-229v58h37l2 2q-10 13 -10 35q0 35 28 65t86 30z" />
    <glyph glyph-name="uni06260632.fina" unicode="&#xfc65;" arabic-form="final" 
d="M-54 -96q120 0 120 96v390h104v-102h152v167h104v-284q0 -33 12 -46t42 -13h14v-112h-34q-69 0 -103.5 31.5t-34.5 109.5v33h-152v-163q0 -114 -51.5 -165t-172.5 -52v110zM386 745q49 0 87 -26l-26 -51q-30 18 -63 18q-22 0 -34.5 -11t-12.5 -27q0 -35 41 -35h94v-58
h-229v58h37l2 2q-10 13 -10 35q0 35 28 65t86 30zM160 470h-91v91h91v-91z" />
    <glyph glyph-name="uni06260646.fina" unicode="&#xfc67;" horiz-adv-x="769" arabic-form="final" 
d="M474 390v-102h123v167h104v-284q0 -33 12 -46t42 -13h14v-112h-34q-69 0 -103.5 31.5t-34.5 109.5v33h-123v-177q0 -89 -56 -146t-153 -57q-100 0 -152.5 54t-52.5 142v295h103v-266q0 -49 24 -81.5t79 -32.5q105 0 105 114v371h103zM658 745q49 0 87 -26l-26 -51
q-30 18 -63 18q-22 0 -34.5 -11t-12.5 -27q0 -35 41 -35h94v-58h-229v58h37l2 2q-10 13 -10 35q0 35 28 65t86 30zM314 450h-91v91h91v-91z" />
    <glyph glyph-name="uni06260649.fina" unicode="&#xfc68;" horiz-adv-x="864" arabic-form="final" 
d="M580 0h-257q-265 0 -265 252v103h103v-72q0 -85 34.5 -128t121.5 -43h159v187q0 87 47.5 133t128.5 46h154v-366h58v-112h-162v364h-55q-37 0 -52 -21t-15 -62v-281zM746 745q49 0 87 -26l-26 -51q-30 18 -63 18q-22 0 -34.5 -11t-12.5 -27q0 -35 41 -35h94v-58h-229v58
h37l2 2q-10 13 -10 35q0 35 28 65t86 30z" />
    <glyph glyph-name="uni0626064A.fina" unicode="&#xfc69;" horiz-adv-x="864" arabic-form="final" 
d="M580 0h-257q-265 0 -265 252v103h103v-72q0 -85 34.5 -128t121.5 -43h159v187q0 87 47.5 133t128.5 46h154v-366h58v-112h-162v364h-55q-37 0 -52 -21t-15 -62v-281zM746 745q49 0 87 -26l-26 -51q-30 18 -63 18q-22 0 -34.5 -11t-12.5 -27q0 -35 41 -35h94v-58h-229v58
h37l2 2q-10 13 -10 35q0 35 28 65t86 30zM516 -173h-91v91h91v-91zM394 -173h-90v91h90v-91z" />
    <glyph glyph-name="uni06280631.fina" unicode="&#xfc6a;" arabic-form="final" 
d="M-54 -96q120 0 120 96v390h104v-102h152v167h104v-284q0 -33 12 -46t42 -13h14v-112h-34q-69 0 -103.5 31.5t-34.5 109.5v33h-152v-163q0 -114 -51.5 -165t-172.5 -52v110zM396 -173h-91v91h91v-91z" />
    <glyph glyph-name="uni06280632.fina" unicode="&#xfc6b;" arabic-form="final" 
d="M-54 -96q120 0 120 96v390h104v-102h152v167h104v-284q0 -33 12 -46t42 -13h14v-112h-34q-69 0 -103.5 31.5t-34.5 109.5v33h-152v-163q0 -114 -51.5 -165t-172.5 -52v110zM396 -173h-91v91h91v-91zM160 470h-91v91h91v-91z" />
    <glyph glyph-name="uni06280646.fina" unicode="&#xfc6d;" horiz-adv-x="769" arabic-form="final" 
d="M474 390v-102h123v167h104v-284q0 -33 12 -46t42 -13h14v-112h-34q-69 0 -103.5 31.5t-34.5 109.5v33h-123v-177q0 -89 -56 -146t-153 -57q-100 0 -152.5 54t-52.5 142v295h103v-266q0 -49 24 -81.5t79 -32.5q105 0 105 114v371h103zM678 -173h-91v91h91v-91zM314 450
h-91v91h91v-91z" />
    <glyph glyph-name="uni06280649.fina" unicode="&#xfc6e;" horiz-adv-x="864" arabic-form="final" 
d="M580 0h-257q-265 0 -265 252v103h103v-72q0 -85 34.5 -128t121.5 -43h159v187q0 87 47.5 133t128.5 46h154v-366h58v-112h-162v364h-55q-37 0 -52 -21t-15 -62v-281zM766 -173h-91v91h91v-91z" />
    <glyph glyph-name="uni0628064A.fina" unicode="&#xfc6f;" horiz-adv-x="864" arabic-form="final" 
d="M580 0h-257q-265 0 -265 252v103h103v-72q0 -85 34.5 -128t121.5 -43h159v187q0 87 47.5 133t128.5 46h154v-366h58v-112h-162v364h-55q-37 0 -52 -21t-15 -62v-281zM766 -173h-91v91h91v-91zM516 -173h-91v91h91v-91zM394 -173h-90v91h90v-91z" />
    <glyph glyph-name="uni062A0631.fina" unicode="&#xfc70;" arabic-form="final" 
d="M-54 -96q120 0 120 96v390h104v-102h152v167h104v-284q0 -33 12 -46t42 -13h14v-112h-34q-69 0 -103.5 31.5t-34.5 109.5v33h-152v-163q0 -114 -51.5 -165t-172.5 -52v110zM466 555h-91v91h91v-91zM344 555h-90v91h90v-91z" />
    <glyph glyph-name="uni062A0632.fina" unicode="&#xfc71;" arabic-form="final" 
d="M-54 -96q120 0 120 96v390h104v-102h152v167h104v-284q0 -33 12 -46t42 -13h14v-112h-34q-69 0 -103.5 31.5t-34.5 109.5v33h-152v-163q0 -114 -51.5 -165t-172.5 -52v110zM466 555h-91v91h91v-91zM344 555h-90v91h90v-91zM160 470h-91v91h91v-91z" />
    <glyph glyph-name="uni062A0646.fina" unicode="&#xfc73;" horiz-adv-x="769" arabic-form="final" 
d="M474 390v-102h123v167h104v-284q0 -33 12 -46t42 -13h14v-112h-34q-69 0 -103.5 31.5t-34.5 109.5v33h-123v-177q0 -89 -56 -146t-153 -57q-100 0 -152.5 54t-52.5 142v295h103v-266q0 -49 24 -81.5t79 -32.5q105 0 105 114v371h103zM738 555h-91v91h91v-91zM616 555h-90
v91h90v-91zM314 450h-91v91h91v-91z" />
    <glyph glyph-name="uni062A0649.fina" unicode="&#xfc74;" horiz-adv-x="864" arabic-form="final" 
d="M580 0h-257q-265 0 -265 252v103h103v-72q0 -85 34.5 -128t121.5 -43h159v187q0 87 47.5 133t128.5 46h154v-366h58v-112h-162v364h-55q-37 0 -52 -21t-15 -62v-281zM826 555h-91v91h91v-91zM704 555h-90v91h90v-91z" />
    <glyph glyph-name="uni062A064A.fina" unicode="&#xfc75;" horiz-adv-x="864" arabic-form="final" 
d="M580 0h-257q-265 0 -265 252v103h103v-72q0 -85 34.5 -128t121.5 -43h159v187q0 87 47.5 133t128.5 46h154v-366h58v-112h-162v364h-55q-37 0 -52 -21t-15 -62v-281zM826 555h-91v91h91v-91zM704 555h-90v91h90v-91zM516 -173h-91v91h91v-91zM394 -173h-90v91h90v-91z
" />
    <glyph glyph-name="uni062B0631.fina" unicode="&#xfc76;" arabic-form="final" 
d="M-54 -96q120 0 120 96v390h104v-102h152v167h104v-284q0 -33 12 -46t42 -13h14v-112h-34q-69 0 -103.5 31.5t-34.5 109.5v33h-152v-163q0 -114 -51.5 -165t-172.5 -52v110zM466 555h-91v91h91v-91zM344 555h-90v91h90v-91zM405 682h-91v92h91v-92z" />
    <glyph glyph-name="uni062B0632.fina" unicode="&#xfc77;" arabic-form="final" 
d="M-54 -96q120 0 120 96v390h104v-102h152v167h104v-284q0 -33 12 -46t42 -13h14v-112h-34q-69 0 -103.5 31.5t-34.5 109.5v33h-152v-163q0 -114 -51.5 -165t-172.5 -52v110zM466 555h-91v91h91v-91zM344 555h-90v91h90v-91zM405 682h-91v92h91v-92zM160 470h-91v91h91v-91
z" />
    <glyph glyph-name="uni062B0646.fina" unicode="&#xfc79;" horiz-adv-x="769" arabic-form="final" 
d="M474 390v-102h123v167h104v-284q0 -33 12 -46t42 -13h14v-112h-34q-69 0 -103.5 31.5t-34.5 109.5v33h-123v-177q0 -89 -56 -146t-153 -57q-100 0 -152.5 54t-52.5 142v295h103v-266q0 -49 24 -81.5t79 -32.5q105 0 105 114v371h103zM738 555h-91v91h91v-91zM616 555h-90
v91h90v-91zM677 682h-91v92h91v-92zM314 450h-91v91h91v-91z" />
    <glyph glyph-name="uni062B0649.fina" unicode="&#xfc7a;" horiz-adv-x="864" arabic-form="final" 
d="M580 0h-257q-265 0 -265 252v103h103v-72q0 -85 34.5 -128t121.5 -43h159v187q0 87 47.5 133t128.5 46h154v-366h58v-112h-162v364h-55q-37 0 -52 -21t-15 -62v-281zM826 555h-91v91h91v-91zM704 555h-90v91h90v-91zM765 682h-91v92h91v-92z" />
    <glyph glyph-name="uni062B064A.fina" unicode="&#xfc7b;" horiz-adv-x="864" arabic-form="final" 
d="M580 0h-257q-265 0 -265 252v103h103v-72q0 -85 34.5 -128t121.5 -43h159v187q0 87 47.5 133t128.5 46h154v-366h58v-112h-162v364h-55q-37 0 -52 -21t-15 -62v-281zM826 555h-91v91h91v-91zM704 555h-90v91h90v-91zM765 682h-91v92h91v-92zM516 -173h-91v91h91v-91z
M394 -173h-90v91h90v-91z" />
    <glyph glyph-name="uni06460631.fina" unicode="&#xfc8a;" arabic-form="final" 
d="M-54 -96q120 0 120 96v390h104v-102h152v167h104v-284q0 -33 12 -46t42 -13h14v-112h-34q-69 0 -103.5 31.5t-34.5 109.5v33h-152v-163q0 -114 -51.5 -165t-172.5 -52v110zM406 555h-91v91h91v-91z" />
    <glyph glyph-name="uni06460632.fina" unicode="&#xfc8b;" arabic-form="final" 
d="M-54 -96q120 0 120 96v390h104v-102h152v167h104v-284q0 -33 12 -46t42 -13h14v-112h-34q-69 0 -103.5 31.5t-34.5 109.5v33h-152v-163q0 -114 -51.5 -165t-172.5 -52v110zM406 555h-91v91h91v-91zM160 470h-91v91h91v-91z" />
    <glyph glyph-name="uni06460646.fina" unicode="&#xfc8d;" horiz-adv-x="769" arabic-form="final" 
d="M474 390v-102h123v167h104v-284q0 -33 12 -46t42 -13h14v-112h-34q-69 0 -103.5 31.5t-34.5 109.5v33h-123v-177q0 -89 -56 -146t-153 -57q-100 0 -152.5 54t-52.5 142v295h103v-266q0 -49 24 -81.5t79 -32.5q105 0 105 114v371h103zM678 555h-91v91h91v-91zM314 450h-91
v91h91v-91z" />
    <glyph glyph-name="uni06460649.fina" unicode="&#xfc8e;" horiz-adv-x="864" arabic-form="final" 
d="M580 0h-257q-265 0 -265 252v103h103v-72q0 -85 34.5 -128t121.5 -43h159v187q0 87 47.5 133t128.5 46h154v-366h58v-112h-162v364h-55q-37 0 -52 -21t-15 -62v-281zM766 555h-91v91h91v-91z" />
    <glyph glyph-name="uni0646064A.fina" unicode="&#xfc8f;" horiz-adv-x="864" arabic-form="final" 
d="M580 0h-257q-265 0 -265 252v103h103v-72q0 -85 34.5 -128t121.5 -43h159v187q0 87 47.5 133t128.5 46h154v-366h58v-112h-162v364h-55q-37 0 -52 -21t-15 -62v-281zM766 555h-91v91h91v-91zM516 -173h-91v91h91v-91zM394 -173h-90v91h90v-91z" />
    <glyph glyph-name="uni064A0631.fina" unicode="&#xfc91;" arabic-form="final" 
d="M-54 -96q120 0 120 96v390h104v-102h152v167h104v-284q0 -33 12 -46t42 -13h14v-112h-34q-69 0 -103.5 31.5t-34.5 109.5v33h-152v-163q0 -114 -51.5 -165t-172.5 -52v110zM456 -173h-91v91h91v-91zM334 -173h-90v91h90v-91z" />
    <glyph glyph-name="uni064A0632.fina" unicode="&#xfc92;" arabic-form="final" 
d="M-54 -96q120 0 120 96v390h104v-102h152v167h104v-284q0 -33 12 -46t42 -13h14v-112h-34q-69 0 -103.5 31.5t-34.5 109.5v33h-152v-163q0 -114 -51.5 -165t-172.5 -52v110zM456 -173h-91v91h91v-91zM334 -173h-90v91h90v-91zM160 470h-91v91h91v-91z" />
    <glyph glyph-name="uni064A0646.fina" unicode="&#xfc94;" horiz-adv-x="769" arabic-form="final" 
d="M474 390v-102h123v167h104v-284q0 -33 12 -46t42 -13h14v-112h-34q-69 0 -103.5 31.5t-34.5 109.5v33h-123v-177q0 -89 -56 -146t-153 -57q-100 0 -152.5 54t-52.5 142v295h103v-266q0 -49 24 -81.5t79 -32.5q105 0 105 114v371h103zM738 -173h-91v91h91v-91zM616 -173
h-90v91h90v-91zM314 450h-91v91h91v-91z" />
    <glyph glyph-name="uni064A0649.fina" unicode="&#xfc95;" horiz-adv-x="864" arabic-form="final" 
d="M580 0h-257q-265 0 -265 252v103h103v-72q0 -85 34.5 -128t121.5 -43h159v187q0 87 47.5 133t128.5 46h154v-366h58v-112h-162v364h-55q-37 0 -52 -21t-15 -62v-281zM826 -173h-91v91h91v-91zM704 -173h-90v91h90v-91z" />
    <glyph glyph-name="uni064A064A.fina" unicode="&#xfc96;" horiz-adv-x="864" arabic-form="final" 
d="M580 0h-257q-265 0 -265 252v103h103v-72q0 -85 34.5 -128t121.5 -43h159v187q0 87 47.5 133t128.5 46h154v-366h58v-112h-162v364h-55q-37 0 -52 -21t-15 -62v-281zM826 -173h-91v91h91v-91zM704 -173h-90v91h90v-91zM516 -173h-91v91h91v-91zM394 -173h-90v91h90v-91z
" />
    <glyph glyph-name="uniFCF2" unicode="&#xfcf2;" horiz-adv-x="275" arabic-form="medial" 
d="M243 724v-54l-210 -51v52zM149 512l-3 -1q-4 -22 -20.5 -34t-39.5 -12q-61 0 -61 75v18l53 15v-36q0 -20 16 -20q7 0 12.5 6t5.5 14v46l50 15v-36q0 -19 18 -19t18 19v47l52 16v-55q0 -78 -63 -78q-28 0 -38 20zM-47 43q0 19 13.5 32t33.5 13h275v-88h-275
q-20 0 -33.5 12t-13.5 31z" />
    <glyph glyph-name="uniFCF3" unicode="&#xfcf3;" horiz-adv-x="275" arabic-form="medial" 
d="M126 691v3q-19 17 -19 44q0 25 17.5 44.5t47.5 19.5q32 0 51 -20.5t19 -48.5q0 -61 -65 -79l-143 -38v50zM194 732q0 24 -20 24q-22 0 -22 -21q0 -24 26 -28q16 7 16 25zM149 512l-3 -1q-4 -22 -20.5 -34t-39.5 -12q-61 0 -61 75v18l53 15v-36q0 -20 16 -20q7 0 12.5 6
t5.5 14v46l50 15v-36q0 -19 18 -19t18 19v47l52 16v-55q0 -78 -63 -78q-28 0 -38 20zM-47 43q0 19 13.5 32t33.5 13h275v-88h-275q-20 0 -33.5 12t-13.5 31z" />
    <glyph glyph-name="uniFCF4" unicode="&#xfcf4;" horiz-adv-x="275" arabic-form="medial" 
d="M243 564v-55l-210 -51v53zM149 605l-3 -1q-4 -22 -20.5 -34t-39.5 -12q-61 0 -61 75v18l53 15v-36q0 -20 16 -20q7 0 12.5 6t5.5 14v46l50 14v-35q0 -20 18 -20t18 20v47l52 15v-55q0 -77 -63 -77q-28 0 -38 20zM-47 43q0 19 13.5 32t33.5 13h275v-88h-275
q-20 0 -33.5 12t-13.5 31z" />
    <glyph glyph-name="uniFE70" unicode="&#xfe70;" horiz-adv-x="211" arabic-form="isolated" 
d="M211 866v-54l-211 -58v53zM211 785v-54l-211 -57v53z" />
    <glyph glyph-name="uniFE71" unicode="&#xfe71;" horiz-adv-x="261" arabic-form="medial" 
d="M236 659v-54l-211 -58v53zM236 578v-54l-211 -57v53zM-47 43q0 19 13.5 32t33.5 13h261v-88h-261q-20 0 -33.5 12t-13.5 31z" />
    <glyph glyph-name="uniFE72" unicode="&#xfe72;" horiz-adv-x="251" arabic-form="isolated" 
d="M186 712q-53 -15 -123 -33q-4 0 -10 2t-7 2v56q0 29 -27 29q-7 0 -19 -2v42q16 4 31 4q60 0 60 -58v-15l43 12q1 1 1 2q-18 14 -18 47q0 24 18 42.5t47 18.5q32 0 50.5 -20.5t18.5 -53.5q0 -25 -16.5 -46t-48.5 -29zM202 790q0 25 -19 25q-22 0 -22 -21q0 -24 26 -28
q15 5 15 24z" />
    <glyph glyph-name="uniFE74" unicode="&#xfe74;" horiz-adv-x="211" arabic-form="isolated" 
d="M211 -185v-53l-211 -51v51zM211 -266v-52l-211 -51v51z" />
    <glyph glyph-name="uniFE76" unicode="&#xfe76;" horiz-adv-x="211" arabic-form="isolated" 
d="M211 781v-54l-211 -50v52z" />
    <glyph glyph-name="uniFE77" unicode="&#xfe77;" horiz-adv-x="261" arabic-form="medial" 
d="M236 574v-54l-211 -50v52zM-47 43q0 19 13.5 32t33.5 13h261v-88h-261q-20 0 -33.5 12t-13.5 31z" />
    <glyph glyph-name="uniFE78" unicode="&#xfe78;" horiz-adv-x="209" arabic-form="isolated" 
d="M93 751v3q-19 16 -19 44q0 25 17.5 44.5t47.5 19.5q32 0 51 -20.5t19 -48.5q0 -61 -66 -78l-143 -39v50zM160 792q0 24 -20 24q-21 0 -21 -20q0 -25 26 -28q15 5 15 24z" />
    <glyph glyph-name="uniFE79" unicode="&#xfe79;" horiz-adv-x="259" arabic-form="medial" 
d="M118 544v2q-19 17 -19 44q0 25 17.5 44.5t47.5 19.5q32 0 51 -20.5t19 -48.5q0 -61 -65 -78l-144 -39v50zM186 584q0 24 -20 24q-22 0 -22 -20q0 -25 26 -28q16 6 16 24zM-47 43q0 19 13.5 32t33.5 13h259v-88h-259q-20 0 -33.5 12t-13.5 31z" />
    <glyph glyph-name="uniFE7A" unicode="&#xfe7a;" horiz-adv-x="211" arabic-form="isolated" 
d="M211 -185v-54l-211 -52v53z" />
    <glyph glyph-name="uniFE7B" unicode="&#xfe7b;" horiz-adv-x="261" arabic-form="medial" 
d="M236 -91v-55l-211 -51v53zM-47 43q0 19 13.5 32t33.5 13h261v-88h-261q-20 0 -33.5 12t-13.5 31z" />
    <glyph glyph-name="uniFE7C" unicode="&#xfe7c;" horiz-adv-x="225" arabic-form="isolated" 
d="M123 719l-2 -1q-4 -22 -21 -34t-40 -12q-60 0 -60 75v18l52 15v-36q0 -20 16 -20q7 0 12.5 6t5.5 14v46l51 15v-36q0 -19 18 -19q8 0 13 6t5 13v47l52 16v-55q0 -78 -63 -78q-29 0 -39 20z" />
    <glyph glyph-name="uniFE7D" unicode="&#xfe7d;" horiz-adv-x="275" arabic-form="medial" 
d="M149 512l-3 -1q-4 -22 -20.5 -34t-39.5 -12q-61 0 -61 75v18l53 15v-36q0 -20 16 -20q7 0 12.5 6t5.5 14v46l50 15v-36q0 -19 18 -19t18 19v47l52 16v-55q0 -78 -63 -78q-28 0 -38 20zM-47 43q0 19 13.5 32t33.5 13h275v-88h-275q-20 0 -33.5 12t-13.5 31z" />
    <glyph glyph-name="uniFE7E" unicode="&#xfe7e;" horiz-adv-x="160" arabic-form="isolated" 
d="M0 763q0 37 22 59.5t59 22.5q36 0 57.5 -22.5t21.5 -59.5q0 -36 -21.5 -60.5t-57.5 -24.5t-58.5 24.5t-22.5 60.5zM112 762q0 14 -8.5 24t-22.5 10t-23 -10t-9 -24t9 -24.5t23 -10.5t22.5 10.5t8.5 24.5z" />
    <glyph glyph-name="uniFE7F" unicode="&#xfe7f;" horiz-adv-x="211" arabic-form="medial" 
d="M25 556q0 37 22.5 59.5t58.5 22.5q37 0 58.5 -22.5t21.5 -59.5q0 -36 -22 -60.5t-58 -24.5q-35 0 -58 24.5t-23 60.5zM138 555q0 14 -9 24t-23 10t-23 -10t-9 -24q0 -13 9 -24t23 -11t23 11t9 24zM-47 43q0 19 13.5 32t33.5 13h211v-88h-211q-20 0 -33.5 12t-13.5 31z
" />
    <glyph glyph-name="uni0622.fina" unicode="&#x622;" horiz-adv-x="231" arabic-form="final" 
d="M231 0h-34q-69 0 -103 31.5t-34 109.5v535h103v-505q0 -32 12 -45.5t43 -13.5h13v-112zM77 747l-14 -6l-70 -38v72l91 52h14q11 -26 23.5 -35.5t39.5 -9.5h76v-62h-76q-36 0 -53.5 5t-30.5 22z" />
    <glyph glyph-name="uni0623.fina" unicode="&#x623;" horiz-adv-x="231" arabic-form="final" 
d="M231 0h-34q-69 0 -103 31.5t-34 109.5v535h103v-505q0 -32 12 -45.5t43 -13.5h13v-112zM143 930q49 0 87 -26l-26 -51q-30 18 -63 18q-22 0 -34.5 -11t-12.5 -27q0 -35 41 -35h94v-58h-229v58h37l2 2q-10 13 -10 35q0 35 28 65t86 30z" />
    <glyph glyph-name="uni0624.fina" unicode="&#x624;" horiz-adv-x="541" arabic-form="final" 
d="M280 478q97 0 150 -59.5t53 -175.5v-131h58v-112h-58q-3 -106 -63 -164t-167 -58h-152v113h149q64 0 93.5 34.5t29.5 77.5h-89q-226 0 -226 229q0 116 57.5 181t164.5 65zM377 112v120q0 133 -101 133q-52 0 -82.5 -34t-30.5 -100q0 -119 112 -119h102zM291 745
q49 0 87 -26l-26 -51q-30 18 -63 18q-22 0 -34.5 -11t-12.5 -27q0 -35 41 -35h94v-58h-229v58h37l2 2q-10 13 -10 35q0 35 28 65t86 30z" />
    <glyph glyph-name="uni0625.fina" unicode="&#x625;" horiz-adv-x="231" arabic-form="final" 
d="M231 0h-34q-69 0 -103 31.5t-34 109.5v585h103v-555q0 -32 12 -45.5t43 -13.5h13v-112zM143 -82q49 0 87 -26l-26 -51q-30 18 -63 18q-22 0 -34.5 -11t-12.5 -27q0 -35 41 -35h94v-58h-229v58h37l2 2q-10 13 -10 35q0 35 28 65t86 30z" />
    <glyph glyph-name="uni0626.fina" unicode="&#x626;" horiz-adv-x="864" arabic-form="final" 
d="M580 0h-257q-265 0 -265 252v103h103v-72q0 -85 34.5 -128t121.5 -43h159v187q0 87 47.5 133t128.5 46h154v-366h58v-112h-162v364h-55q-37 0 -52 -21t-15 -62v-281zM202 621q49 0 87 -26l-26 -51q-30 18 -63 18q-22 0 -34.5 -11t-12.5 -27q0 -35 41 -35h94v-58h-229v58
h37l2 2q-10 13 -10 35q0 35 28 65t86 30z" />
    <glyph glyph-name="uni0626.init" unicode="&#x626;" horiz-adv-x="229" arabic-form="initial" 
d="M68 455h103v-252q0 -203 -171 -203q-24 0 -40.5 15.5t-16.5 39.5t16.5 40t40.5 17q41 1 54.5 25t13.5 74v244zM142 720q49 0 87 -26l-26 -51q-30 18 -63 18q-22 0 -34.5 -11t-12.5 -27q0 -35 41 -35h94v-58h-229v58h37l2 2q-10 13 -10 35q0 35 28 65t86 30z" />
    <glyph glyph-name="uni0626.medi" unicode="&#x626;" horiz-adv-x="249" arabic-form="medial" 
d="M-57 55q0 21 16 39t41 18q37 0 54 21.5t17 70.5v186h103v-192q0 -44 16.5 -64.5t58.5 -21.5v-112q-92 0 -121 56q-40 -56 -128 -56q-24 0 -40.5 15.5t-16.5 39.5zM152 660q49 0 87 -26l-26 -51q-30 18 -63 18q-22 0 -34.5 -11t-12.5 -27q0 -35 41 -35h94v-58h-229v58h37
l2 2q-10 13 -10 35q0 35 28 65t86 30z" />
    <glyph glyph-name="uni0627.fina" unicode="&#x627;" horiz-adv-x="231" arabic-form="final" 
d="M231 0h-34q-69 0 -103 31.5t-34 109.5v585h103v-555q0 -32 12 -45.5t43 -13.5h13v-112z" />
    <glyph glyph-name="uni0628.fina" unicode="&#x628;" horiz-adv-x="778" arabic-form="final" 
d="M600 389h103v-191q0 -43 16 -64t59 -22v-112q-93 0 -122 56q-25 -33 -54 -44.5t-76 -11.5h-202q-264 0 -264 252v103h103v-72q0 -86 33.5 -128.5t121.5 -42.5h207q44 0 59.5 22.5t15.5 64.5v190zM458 -173h-91v91h91v-91z" />
    <glyph glyph-name="uni0628.init" unicode="&#x628;" horiz-adv-x="229" arabic-form="initial" 
d="M68 455h103v-252q0 -203 -171 -203q-24 0 -40.5 15.5t-16.5 39.5t16.5 40t40.5 17q41 1 54.5 25t13.5 74v244zM148 -173h-91v91h91v-91z" />
    <glyph glyph-name="uni0628.medi" unicode="&#x628;" horiz-adv-x="249" arabic-form="medial" 
d="M-57 55q0 21 16 39t41 18q37 0 54 21.5t17 70.5v186h103v-192q0 -44 16.5 -64.5t58.5 -21.5v-112q-92 0 -121 56q-40 -56 -128 -56q-24 0 -40.5 15.5t-16.5 39.5zM170 -173h-91v91h91v-91z" />
    <glyph glyph-name="uni0629.fina" unicode="&#x629;" horiz-adv-x="541" arabic-form="final" 
d="M364 478h105v-272q0 -46 14.5 -69.5t57.5 -24.5v-112h-11q-56 0 -93 25t-48 63q-29 -26 -71 -41.5t-80 -15.5q-89 0 -134.5 43t-45.5 117q0 28 7.5 55.5t28.5 58.5t53.5 55.5t88.5 45t128 29.5v43zM245 139q120 0 120 127v66q-114 -13 -156.5 -50.5t-42.5 -76.5
q0 -30 21 -48t58 -18zM359 530h-91v91h91v-91zM237 530h-90v91h90v-91z" />
    <glyph glyph-name="uni062A.fina" unicode="&#x62a;" horiz-adv-x="778" arabic-form="final" 
d="M600 389h103v-191q0 -43 16 -64t59 -22v-112q-93 0 -122 56q-25 -33 -54 -44.5t-76 -11.5h-202q-264 0 -264 252v103h103v-72q0 -86 33.5 -128.5t121.5 -42.5h207q44 0 59.5 22.5t15.5 64.5v190zM514 450h-91v91h91v-91zM392 450h-90v91h90v-91z" />
    <glyph glyph-name="uni062A.init" unicode="&#x62a;" horiz-adv-x="229" arabic-form="initial" 
d="M68 455h103v-252q0 -203 -171 -203q-24 0 -40.5 15.5t-16.5 39.5t16.5 40t40.5 17q41 1 54.5 25t13.5 74v244zM220 530h-91v91h91v-91zM98 530h-90v91h90v-91z" />
    <glyph glyph-name="uni062A.medi" unicode="&#x62a;" horiz-adv-x="249" arabic-form="medial" 
d="M-57 55q0 21 16 39t41 18q37 0 54 21.5t17 70.5v186h103v-192q0 -44 16.5 -64.5t58.5 -21.5v-112q-92 0 -121 56q-40 -56 -128 -56q-24 0 -40.5 15.5t-16.5 39.5zM230 470h-91v91h91v-91zM108 470h-90v91h90v-91z" />
    <glyph glyph-name="uni062B.fina" unicode="&#x62b;" horiz-adv-x="778" arabic-form="final" 
d="M600 389h103v-191q0 -43 16 -64t59 -22v-112q-93 0 -122 56q-25 -33 -54 -44.5t-76 -11.5h-202q-264 0 -264 252v103h103v-72q0 -86 33.5 -128.5t121.5 -42.5h207q44 0 59.5 22.5t15.5 64.5v190zM514 450h-91v91h91v-91zM392 450h-90v91h90v-91zM453 577h-91v92h91v-92z
" />
    <glyph glyph-name="uni062B.init" unicode="&#x62b;" horiz-adv-x="229" arabic-form="initial" 
d="M68 455h103v-252q0 -203 -171 -203q-24 0 -40.5 15.5t-16.5 39.5t16.5 40t40.5 17q41 1 54.5 25t13.5 74v244zM220 530h-91v91h91v-91zM98 530h-90v91h90v-91zM159 657h-91v92h91v-92z" />
    <glyph glyph-name="uni062B.medi" unicode="&#x62b;" horiz-adv-x="249" arabic-form="medial" 
d="M-57 55q0 21 16 39t41 18q37 0 54 21.5t17 70.5v186h103v-192q0 -44 16.5 -64.5t58.5 -21.5v-112q-92 0 -121 56q-40 -56 -128 -56q-24 0 -40.5 15.5t-16.5 39.5zM230 470h-91v91h91v-91zM108 470h-90v91h90v-91zM169 597h-91v92h91v-92z" />
    <glyph glyph-name="uni062C.fina" unicode="&#x62c;" horiz-adv-x="558" arabic-form="final" 
d="M404 112l4 6q-11 10 -18 29t-9 35t-5.5 49t-5.5 48q-11 87 -92 87q-64 0 -126 -35q-7 15 -22 45t-22 45q82 57 176 57q174 0 194 -201q11 -106 26 -135q16 -30 47 -30h7v-112h-293q-51 0 -76 -25t-25 -63q0 -82 119 -82q35 0 70 7l15 -102q-41 -12 -104 -12
q-95 0 -150.5 47.5t-55.5 137.5q0 99 64.5 151.5t159.5 52.5h122zM430 -117h-91v91h91v-91z" />
    <glyph glyph-name="uni062C.init" unicode="&#x62c;" horiz-adv-x="505" arabic-form="initial" 
d="M0 0q-24 0 -40 15.5t-16 40.5q0 24 16 40t40 16h355l3 6q-15 13 -21.5 40.5t-11 71t-9.5 66.5q-15 70 -88 70q-65 0 -125 -35l-45 90q83 57 176 57q172 0 193 -185q2 -13 4.5 -37.5t4 -35.5t4 -29.5t6 -28t8 -20.5t11 -17.5t15.5 -10.5v-114h-480zM281 -173h-91v91h91
v-91z" />
    <glyph glyph-name="uni062C.medi" unicode="&#x62c;" horiz-adv-x="508" arabic-form="medial" 
d="M234 478q174 0 194 -201q11 -106 26 -135q16 -30 47 -30h7v-112h-508q-24 0 -40 15.5t-16 40.5q0 24 16 40t40 16h354l4 6q-11 10 -18 29t-9 35t-5.5 49t-5.5 48q-11 87 -92 87q-64 0 -126 -35q-7 15 -22 45t-22 45q82 57 176 57zM291 -173h-91v91h91v-91z" />
    <glyph glyph-name="uni062D.fina" unicode="&#x62d;" horiz-adv-x="558" arabic-form="final" 
d="M404 112l4 6q-11 10 -18 29t-9 35t-5.5 49t-5.5 48q-11 87 -92 87q-64 0 -126 -35q-7 15 -22 45t-22 45q82 57 176 57q174 0 194 -201q11 -106 26 -135q16 -30 47 -30h7v-112h-293q-51 0 -76 -25t-25 -63q0 -82 119 -82q35 0 70 7l15 -102q-41 -12 -104 -12
q-95 0 -150.5 47.5t-55.5 137.5q0 99 64.5 151.5t159.5 52.5h122z" />
    <glyph glyph-name="uni062D.init" unicode="&#x62d;" horiz-adv-x="505" arabic-form="initial" 
d="M0 0q-24 0 -40 15.5t-16 40.5q0 24 16 40t40 16h355l3 6q-15 13 -21.5 40.5t-11 71t-9.5 66.5q-15 70 -88 70q-65 0 -125 -35l-45 90q83 57 176 57q172 0 193 -185q2 -13 4.5 -37.5t4 -35.5t4 -29.5t6 -28t8 -20.5t11 -17.5t15.5 -10.5v-114h-480z" />
    <glyph glyph-name="uni062D.medi" unicode="&#x62d;" horiz-adv-x="508" arabic-form="medial" 
d="M234 478q174 0 194 -201q11 -106 26 -135q16 -30 47 -30h7v-112h-508q-24 0 -40 15.5t-16 40.5q0 24 16 40t40 16h354l4 6q-11 10 -18 29t-9 35t-5.5 49t-5.5 48q-11 87 -92 87q-64 0 -126 -35q-7 15 -22 45t-22 45q82 57 176 57z" />
    <glyph glyph-name="uni062E.fina" unicode="&#x62e;" horiz-adv-x="558" arabic-form="final" 
d="M404 112l4 6q-11 10 -18 29t-9 35t-5.5 49t-5.5 48q-11 87 -92 87q-64 0 -126 -35q-7 15 -22 45t-22 45q82 57 176 57q174 0 194 -201q11 -106 26 -135q16 -30 47 -30h7v-112h-293q-51 0 -76 -25t-25 -63q0 -82 119 -82q35 0 70 7l15 -102q-41 -12 -104 -12
q-95 0 -150.5 47.5t-55.5 137.5q0 99 64.5 151.5t159.5 52.5h122zM340 555h-91v91h91v-91z" />
    <glyph glyph-name="uni062E.init" unicode="&#x62e;" horiz-adv-x="505" arabic-form="initial" 
d="M0 0q-24 0 -40 15.5t-16 40.5q0 24 16 40t40 16h355l3 6q-15 13 -21.5 40.5t-11 71t-9.5 66.5q-15 70 -88 70q-65 0 -125 -35l-45 90q83 57 176 57q172 0 193 -185q2 -13 4.5 -37.5t4 -35.5t4 -29.5t6 -28t8 -20.5t11 -17.5t15.5 -10.5v-114h-480zM298 555h-91v91h91v-91
z" />
    <glyph glyph-name="uni062E.medi" unicode="&#x62e;" horiz-adv-x="508" arabic-form="medial" 
d="M234 478q174 0 194 -201q11 -106 26 -135q16 -30 47 -30h7v-112h-508q-24 0 -40 15.5t-16 40.5q0 24 16 40t40 16h354l4 6q-11 10 -18 29t-9 35t-5.5 49t-5.5 48q-11 87 -92 87q-64 0 -126 -35q-7 15 -22 45t-22 45q82 57 176 57zM300 555h-91v91h91v-91z" />
    <glyph glyph-name="uni062F.fina" unicode="&#x62f;" horiz-adv-x="506" arabic-form="final" 
d="M345 112v156q0 99 -96 99q-74 0 -125 -39l-55 88q74 61 185 61q195 0 195 -184v-181h57v-112h-448v112h287z" />
    <glyph glyph-name="uni0630.fina" unicode="&#x630;" horiz-adv-x="506" arabic-form="final" 
d="M345 112v156q0 99 -96 99q-74 0 -125 -39l-55 88q74 61 185 61q195 0 195 -184v-181h57v-112h-448v112h287zM286 555h-91v91h91v-91z" />
    <glyph glyph-name="uni0631.fina" unicode="&#x631;" horiz-adv-x="228" arabic-form="final" 
d="M-54 -96q66 1 93.5 29t27.5 85v372h103v-278h58v-112h-58q-2 -103 -55 -154t-169 -52v110z" />
    <glyph glyph-name="uni0632.fina" unicode="&#x632;" horiz-adv-x="228" arabic-form="final" 
d="M-54 -96q66 1 93.5 29t27.5 85v372h103v-278h58v-112h-58q-2 -103 -55 -154t-169 -52v110zM160 470h-91v91h91v-91z" />
    <glyph glyph-name="uni0633.fina" unicode="&#x633;" horiz-adv-x="1022" arabic-form="final" 
d="M1022 112v-112q-86 2 -116 54h-4q-42 -64 -132 -64q-93 0 -139 67h-5q-45 -57 -129 -57h-30v-10q0 -88 -58 -142t-147 -54q-96 0 -149 51.5t-53 137.5v302h103v-250q0 -59 20.5 -94t79.5 -35q48 0 74.5 30.5t26.5 75.5v378h103v-278h30q43 0 65.5 28.5t22.5 76.5v173h102
v-188q0 -49 20.5 -76t57.5 -27q39 0 57.5 28.5t18.5 75.5q0 58 -26 127.5t-63 109.5l84 63q42 -49 76 -128t34 -165v-5q0 -91 76 -93z" />
    <glyph glyph-name="uni0633.init" unicode="&#x633;" horiz-adv-x="801" arabic-form="initial" 
d="M0 0q-24 0 -40.5 15.5t-16.5 40.5q0 24 16 40t41 16h154v278h103v-278h37q44 0 66 28t22 77v173h102v-188q0 -49 20.5 -76t57.5 -27q74 0 74 104q0 58 -26 127.5t-63 109.5l84 63q43 -50 77.5 -130.5t34.5 -171.5t-42.5 -151.5t-133.5 -60.5q-97 0 -140 68h-4
q-41 -57 -129 -57h-294z" />
    <glyph glyph-name="uni0633.medi" unicode="&#x633;" horiz-adv-x="819" arabic-form="medial" 
d="M567 -10q-93 0 -139 66h-5q-45 -56 -129 -56h-294q-23 0 -39.5 16t-16.5 40q0 56 79 56h131v278h103v-278h37q44 0 66 28t22 77v173h102v-188q0 -49 20.5 -76t57.5 -27q39 0 57.5 28.5t18.5 75.5q0 58 -26 127.5t-63 109.5l84 63q42 -49 76 -128t34 -165v-5q0 -91 76 -93
v-112q-86 2 -116 54h-4q-42 -64 -132 -64z" />
    <glyph glyph-name="uni0634.fina" unicode="&#x634;" horiz-adv-x="1022" arabic-form="final" 
d="M1022 112v-112q-86 2 -116 54h-4q-42 -64 -132 -64q-93 0 -139 67h-5q-45 -57 -129 -57h-30v-10q0 -88 -58 -142t-147 -54q-96 0 -149 51.5t-53 137.5v302h103v-250q0 -59 20.5 -94t79.5 -35q48 0 74.5 30.5t26.5 75.5v378h103v-278h30q43 0 65.5 28.5t22.5 76.5v173h102
v-188q0 -49 20.5 -76t57.5 -27q39 0 57.5 28.5t18.5 75.5q0 58 -26 127.5t-63 109.5l84 63q42 -49 76 -128t34 -165v-5q0 -91 76 -93zM733 530h-91v91h91v-91zM611 530h-90v91h90v-91zM672 657h-91v92h91v-92z" />
    <glyph glyph-name="uni0634.init" unicode="&#x634;" horiz-adv-x="801" arabic-form="initial" 
d="M0 0q-24 0 -40.5 15.5t-16.5 40.5q0 24 16 40t41 16h154v278h103v-278h37q44 0 66 28t22 77v173h102v-188q0 -49 20.5 -76t57.5 -27q74 0 74 104q0 58 -26 127.5t-63 109.5l84 63q43 -50 77.5 -130.5t34.5 -171.5t-42.5 -151.5t-133.5 -60.5q-97 0 -140 68h-4
q-41 -57 -129 -57h-294zM538 530h-91v91h91v-91zM416 530h-90v91h90v-91zM477 657h-91v92h91v-92z" />
    <glyph glyph-name="uni0634.medi" unicode="&#x634;" horiz-adv-x="819" arabic-form="medial" 
d="M567 -10q-93 0 -139 66h-5q-45 -56 -129 -56h-294q-23 0 -39.5 16t-16.5 40q0 56 79 56h131v278h103v-278h37q44 0 66 28t22 77v173h102v-188q0 -49 20.5 -76t57.5 -27q39 0 57.5 28.5t18.5 75.5q0 58 -26 127.5t-63 109.5l84 63q42 -49 76 -128t34 -165v-5q0 -91 76 -93
v-112q-86 2 -116 54h-4q-42 -64 -132 -64zM538 530h-91v91h91v-91zM416 530h-90v91h90v-91zM477 657h-91v92h91v-92z" />
    <glyph glyph-name="uni0635.fina" unicode="&#x635;" horiz-adv-x="962" arabic-form="final" 
d="M369 457h102v-88h7q45 50 106 79.5t123 29.5q96 0 147 -50t51 -138v-178h57v-112h-490v-9q0 -86 -57 -141.5t-152 -55.5q-101 0 -153 53.5t-52 141.5v296h103v-268q0 -46 23 -78.5t80 -32.5q22 0 36 9q69 15 69 102v440zM471 143v-31h330v137q0 115 -113 115
q-96 0 -156.5 -68.5t-60.5 -152.5z" />
    <glyph glyph-name="uni0635.init" unicode="&#x635;" horiz-adv-x="653" arabic-form="initial" 
d="M0 0q-24 0 -40.5 15.5t-16.5 39.5t16.5 40.5t40.5 16.5h58v345h103v-88h6q46 50 107 79.5t123 29.5q96 0 147 -50t51 -138v-290h-595zM161 143v-31h330v137q0 115 -114 115q-96 0 -156 -68.5t-60 -152.5z" />
    <glyph glyph-name="uni0635.medi" unicode="&#x635;" horiz-adv-x="652" arabic-form="medial" 
d="M0 0q-24 0 -40.5 15.5t-16.5 39.5t16.5 40.5t40.5 16.5h58v345h103v-88h6q46 50 107 79.5t123 29.5q96 0 147 -50t51 -138v-178h57v-112h-652zM161 143v-31h330v137q0 115 -114 115q-96 0 -156 -68.5t-60 -152.5z" />
    <glyph glyph-name="uni0636.fina" unicode="&#x636;" horiz-adv-x="962" arabic-form="final" 
d="M369 457h102v-88h7q45 50 106 79.5t123 29.5q96 0 147 -50t51 -138v-178h57v-112h-490v-9q0 -86 -57 -141.5t-152 -55.5q-101 0 -153 53.5t-52 141.5v296h103v-268q0 -46 23 -78.5t80 -32.5q22 0 36 9q69 15 69 102v440zM471 143v-31h330v137q0 115 -113 115
q-96 0 -156.5 -68.5t-60.5 -152.5zM715 555h-91v91h91v-91z" />
    <glyph glyph-name="uni0636.init" unicode="&#x636;" horiz-adv-x="653" arabic-form="initial" 
d="M0 0q-24 0 -40.5 15.5t-16.5 39.5t16.5 40.5t40.5 16.5h58v345h103v-88h6q46 50 107 79.5t123 29.5q96 0 147 -50t51 -138v-290h-595zM161 143v-31h330v137q0 115 -114 115q-96 0 -156 -68.5t-60 -152.5zM435 555h-91v91h91v-91z" />
    <glyph glyph-name="uni0636.medi" unicode="&#x636;" horiz-adv-x="652" arabic-form="medial" 
d="M0 0q-24 0 -40.5 15.5t-16.5 39.5t16.5 40.5t40.5 16.5h58v345h103v-88h6q46 50 107 79.5t123 29.5q96 0 147 -50t51 -138v-178h57v-112h-652zM161 143v-31h330v137q0 115 -114 115q-96 0 -156 -68.5t-60 -152.5zM435 555h-91v91h91v-91z" />
    <glyph glyph-name="uni0637.fina" unicode="&#x637;" horiz-adv-x="770" arabic-form="final" 
d="M50 0v112h126v614h103v-357h6q46 50 107 79.5t123 29.5q96 0 147 -50t51 -138v-178h57v-112h-720zM279 143v-31h330v137q0 115 -114 115q-96 0 -156 -68.5t-60 -152.5z" />
    <glyph glyph-name="uni0637.init" unicode="&#x637;" horiz-adv-x="653" arabic-form="initial" 
d="M0 0q-24 0 -40.5 15.5t-16.5 39.5t16.5 40.5t40.5 16.5h58v614h103v-357h6q46 50 107 79.5t123 29.5q96 0 147 -50t51 -138v-290h-595zM161 143v-31h330v137q0 115 -114 115q-96 0 -156 -68.5t-60 -152.5z" />
    <glyph glyph-name="uni0637.medi" unicode="&#x637;" horiz-adv-x="652" arabic-form="medial" 
d="M0 0q-24 0 -40.5 15.5t-16.5 39.5t16.5 40.5t40.5 16.5h58v614h103v-357h6q46 50 107 79.5t123 29.5q96 0 147 -50t51 -138v-178h57v-112h-652zM161 143v-31h330v137q0 115 -114 115q-96 0 -156 -68.5t-60 -152.5z" />
    <glyph glyph-name="uni0638.fina" unicode="&#x638;" horiz-adv-x="770" arabic-form="final" 
d="M50 0v112h126v614h103v-357h6q46 50 107 79.5t123 29.5q96 0 147 -50t51 -138v-178h57v-112h-720zM279 143v-31h330v137q0 115 -114 115q-96 0 -156 -68.5t-60 -152.5zM555 555h-91v91h91v-91z" />
    <glyph glyph-name="uni0638.init" unicode="&#x638;" horiz-adv-x="653" arabic-form="initial" 
d="M0 0q-24 0 -40.5 15.5t-16.5 39.5t16.5 40.5t40.5 16.5h58v614h103v-357h6q46 50 107 79.5t123 29.5q96 0 147 -50t51 -138v-290h-595zM161 143v-31h330v137q0 115 -114 115q-96 0 -156 -68.5t-60 -152.5zM435 555h-91v91h91v-91z" />
    <glyph glyph-name="uni0638.medi" unicode="&#x638;" horiz-adv-x="652" arabic-form="medial" 
d="M0 0q-24 0 -40.5 15.5t-16.5 39.5t16.5 40.5t40.5 16.5h58v614h103v-357h6q46 50 107 79.5t123 29.5q96 0 147 -50t51 -138v-178h57v-112h-652zM161 143v-31h330v137q0 115 -114 115q-96 0 -156 -68.5t-60 -152.5zM435 555h-91v91h91v-91z" />
    <glyph glyph-name="uni0639.fina" unicode="&#x639;" horiz-adv-x="611" arabic-form="final" 
d="M58 -97q0 66 44.5 124t100.5 92q-56 45 -80.5 95.5t-24.5 91.5q0 86 63 129t159 43q93 0 163 -43t70 -128q0 -48 -36 -94t-96 -76q53 -25 150 -25h40v-112h-40q-78 0 -160 18.5t-121 43.5q-125 -76 -125 -151q0 -41 37.5 -61.5t96.5 -20.5q34 0 62 5l15 -101
q-39 -11 -92 -11q-104 0 -165 47.5t-61 133.5zM209 303q0 -28 26.5 -62t82.5 -66q70 33 97.5 60t27.5 56q0 36 -35 58t-93 22q-48 0 -77 -17.5t-29 -50.5z" />
    <glyph glyph-name="uni0639.init" unicode="&#x639;" horiz-adv-x="535" arabic-form="initial" 
d="M174 232q0 -47 29 -83.5t97 -36.5h159v-112h-459q-24 0 -40.5 15.5t-16.5 39.5t16.5 40.5t40.5 16.5h87l5 6q-34 34 -34 119q0 114 65 177.5t161 63.5q107 0 193 -71l-61 -94q-56 48 -126 48q-50 0 -83 -32t-33 -97z" />
    <glyph glyph-name="uni0639.medi" unicode="&#x639;" horiz-adv-x="569" arabic-form="medial" 
d="M-57 55q0 24 16.5 40.5t40.5 16.5h52q72 0 105 15q-52 40 -75.5 86t-23.5 86q0 84 66 131.5t168 47.5q89 0 154 -43.5t65 -130.5q0 -46 -27 -94.5t-71 -80.5q46 -17 119 -17h37v-112h-44q-156 0 -238 56q-88 -56 -246 -56h-41q-24 0 -40.5 15.5t-16.5 39.5zM290 370
q-63 0 -92.5 -24.5t-29.5 -57.5q0 -29 30 -66t93 -67q114 59 114 137q0 31 -26 54.5t-89 23.5z" />
    <glyph glyph-name="uni063A.fina" unicode="&#x63a;" horiz-adv-x="611" arabic-form="final" 
d="M58 -97q0 66 44.5 124t100.5 92q-56 45 -80.5 95.5t-24.5 91.5q0 86 63 129t159 43q93 0 163 -43t70 -128q0 -48 -36 -94t-96 -76q53 -25 150 -25h40v-112h-40q-78 0 -160 18.5t-121 43.5q-125 -76 -125 -151q0 -41 37.5 -61.5t96.5 -20.5q34 0 62 5l15 -101
q-39 -11 -92 -11q-104 0 -165 47.5t-61 133.5zM209 303q0 -28 26.5 -62t82.5 -66q70 33 97.5 60t27.5 56q0 36 -35 58t-93 22q-48 0 -77 -17.5t-29 -50.5zM359 555h-91v91h91v-91z" />
    <glyph glyph-name="uni063A.init" unicode="&#x63a;" horiz-adv-x="535" arabic-form="initial" 
d="M174 232q0 -47 29 -83.5t97 -36.5h159v-112h-459q-24 0 -40.5 15.5t-16.5 39.5t16.5 40.5t40.5 16.5h87l5 6q-34 34 -34 119q0 114 65 177.5t161 63.5q107 0 193 -71l-61 -94q-56 48 -126 48q-50 0 -83 -32t-33 -97zM313 555h-91v91h91v-91z" />
    <glyph glyph-name="uni063A.medi" unicode="&#x63a;" horiz-adv-x="569" arabic-form="medial" 
d="M-57 55q0 24 16.5 40.5t40.5 16.5h52q72 0 105 15q-52 40 -75.5 86t-23.5 86q0 84 66 131.5t168 47.5q89 0 154 -43.5t65 -130.5q0 -46 -27 -94.5t-71 -80.5q46 -17 119 -17h37v-112h-44q-156 0 -238 56q-88 -56 -246 -56h-41q-24 0 -40.5 15.5t-16.5 39.5zM290 370
q-63 0 -92.5 -24.5t-29.5 -57.5q0 -29 30 -66t93 -67q114 59 114 137q0 31 -26 54.5t-89 23.5zM330 555h-91v91h91v-91z" />
    <glyph glyph-name="uni0641.fina" unicode="&#x641;" horiz-adv-x="858" arabic-form="final" 
d="M164 283q0 -84 34 -127.5t119 -43.5h69q43 0 58 -3q0 1 0.5 3t0.5 3q-31 22 -49.5 64t-18.5 87q0 94 56 153t153 59q101 0 157.5 -60.5t56.5 -161.5q0 -37 -12.5 -75.5t-32.5 -62.5q0 -2 2 -6h101v-112h-529q-189 0 -246 129q-25 54 -25 199v27h106v-72zM588 368
q-50 0 -77 -30.5t-27 -74.5q0 -55 38.5 -95t105.5 -53q66 43 66 133q0 54 -28.5 87t-77.5 33zM630 555h-91v91h91v-91z" />
    <glyph glyph-name="uni0641.init" unicode="&#x641;" horiz-adv-x="535" arabic-form="initial" 
d="M251 0h-251q-24 0 -40 15.5t-16 40.5q0 24 15.5 40t40.5 16h75q38 0 62 -4q0 1 1 3v2q-80 41 -80 150q0 95 56 155t152 60q104 0 157.5 -62t53.5 -175q0 -119 -60.5 -180t-165.5 -61zM371 248q0 56 -25.5 87.5t-76.5 31.5q-52 0 -78 -33t-26 -78q0 -56 42.5 -89.5
t112.5 -41.5q51 35 51 123zM313 555h-91v91h91v-91z" />
    <glyph glyph-name="uni0641.medi" unicode="&#x641;" horiz-adv-x="539" arabic-form="medial" 
d="M-56 56q0 24 15.5 40t40.5 16h67q43 0 58 -3q0 1 0.5 3t0.5 3q-31 22 -49.5 64t-18.5 87q0 94 56 153t153 59q101 0 157.5 -60.5t56.5 -161.5q0 -37 -12.5 -75.5t-32.5 -62.5q0 -2 2 -6h101v-112h-539q-24 0 -40 15.5t-16 40.5zM269 368q-50 0 -77 -30.5t-27 -74.5
q0 -55 38.5 -95t105.5 -53q66 43 66 133q0 54 -28.5 87t-77.5 33zM315 555h-91v91h91v-91z" />
    <glyph glyph-name="uni0642.fina" unicode="&#x642;" horiz-adv-x="723" arabic-form="final" 
d="M563 112v120q0 133 -100 133q-53 0 -83.5 -34t-30.5 -100q0 -119 113 -119h101zM669 243v-131h54v-112h-59q-12 -102 -87 -162t-207 -60q-89 0 -152 24t-96.5 66.5t-48.5 91.5t-15 109v216h103v-185q0 -46 9 -81t30.5 -65.5t64.5 -47t106 -16.5q73 0 122.5 28t58.5 85
h-81q-227 0 -227 229q0 116 58 181t165 65q95 0 148.5 -60t53.5 -175zM563 555h-91v91h91v-91zM441 555h-90v91h90v-91z" />
    <glyph glyph-name="uni0642.init" unicode="&#x642;" horiz-adv-x="535" arabic-form="initial" 
d="M251 0h-251q-24 0 -40 15.5t-16 40.5q0 24 15.5 40t40.5 16h75q38 0 62 -4q0 1 1 3v2q-80 41 -80 150q0 95 56 155t152 60q104 0 157.5 -62t53.5 -175q0 -119 -60.5 -180t-165.5 -61zM371 248q0 56 -25.5 87.5t-76.5 31.5q-52 0 -78 -33t-26 -78q0 -56 42.5 -89.5
t112.5 -41.5q51 35 51 123zM373 555h-91v91h91v-91zM251 555h-90v91h90v-91z" />
    <glyph glyph-name="uni0642.medi" unicode="&#x642;" horiz-adv-x="539" arabic-form="medial" 
d="M-56 56q0 24 15.5 40t40.5 16h67q43 0 58 -3q0 1 0.5 3t0.5 3q-31 22 -49.5 64t-18.5 87q0 94 56 153t153 59q101 0 157.5 -60.5t56.5 -161.5q0 -37 -12.5 -75.5t-32.5 -62.5q0 -2 2 -6h101v-112h-539q-24 0 -40 15.5t-16 40.5zM269 368q-50 0 -77 -30.5t-27 -74.5
q0 -55 38.5 -95t105.5 -53q66 43 66 133q0 54 -28.5 87t-77.5 33zM375 555h-91v91h91v-91zM253 555h-90v91h90v-91z" />
    <glyph glyph-name="uni0643.fina" unicode="&#x643;" horiz-adv-x="778" arabic-form="final" 
d="M600 726h103v-528q0 -43 16 -64t59 -22v-112q-93 0 -122 56q-25 -33 -54 -44.5t-76 -11.5h-202q-264 0 -264 252v103h103v-72q0 -86 33.5 -128.5t121.5 -42.5h207q44 0 59.5 22.5t15.5 64.5v527zM416 496q49 0 87 -26l-26 -51q-30 18 -63 18q-22 0 -34.5 -11t-12.5 -27
q0 -35 41 -35h94v-58h-229v58h37l2 2q-10 13 -10 35q0 35 28 65t86 30z" />
    <glyph glyph-name="uni0643.init" unicode="&#x643;" horiz-adv-x="504" arabic-form="initial" 
d="M-58 56q0 25 16 40.5t42 15.5h333v60q0 39 -10 65t-39 43l-226 137v75l379 244l51 -77l-306 -196l163 -98q32 -19 51.5 -41t27.5 -48.5t10 -46t2 -51.5v-178h-437q-26 0 -41.5 15.5t-15.5 40.5z" />
    <glyph glyph-name="uni0643.medi" unicode="&#x643;" horiz-adv-x="504" arabic-form="medial" 
d="M-58 56q0 25 16 40.5t42 15.5h333v60q0 39 -10 65t-39 43l-226 137v75l379 244l51 -77l-306 -196l163 -98q32 -19 51.5 -41t27.5 -48.5t10 -46t2 -51.5v-66h68v-112h-505q-26 0 -41.5 15.5t-15.5 40.5z" />
    <glyph glyph-name="uni0644.fina" unicode="&#x644;" horiz-adv-x="530" arabic-form="final" 
d="M472 726v-614h58v-112h-58q0 -25 -8 -47q-12 -71 -65 -115t-136 -44q-100 0 -152.5 54t-52.5 142v295h103v-266q0 -43 23.5 -78t79.5 -35t80.5 32t24.5 81v707h103z" />
    <glyph glyph-name="uni0644.init" unicode="&#x644;" horiz-adv-x="229" arabic-form="initial" 
d="M68 726h103v-523q0 -203 -171 -203q-24 0 -40.5 15.5t-16.5 39.5t16.5 40t40.5 17q41 1 54.5 25t13.5 74v515z" />
    <glyph glyph-name="uni0644.medi" unicode="&#x644;" horiz-adv-x="249" arabic-form="medial" 
d="M-57 55q0 21 16 39t41 18q37 0 54 21.5t17 70.5v522h103v-528q0 -44 16.5 -64.5t58.5 -21.5v-112q-92 0 -121 56q-40 -56 -128 -56q-24 0 -40.5 15.5t-16.5 39.5z" />
    <glyph glyph-name="uni0645.fina" unicode="&#x645;" horiz-adv-x="757" arabic-form="final" 
d="M757 112v-112q-101 0 -134 54q-31 -32 -70 -43t-117 -11h-177q-51 0 -73.5 -21t-22.5 -64v-187h-103v190q0 194 206 194v129q0 115 56 176t153 61q104 0 157 -63.5t53 -180.5q0 -5 -0.5 -14.5t-0.5 -14.5q0 -48 15.5 -70t57.5 -23zM369 233v-124h103q109 0 109 124
q0 132 -105 132q-107 0 -107 -132z" />
    <glyph glyph-name="uni0645.init" unicode="&#x645;" horiz-adv-x="558" arabic-form="initial" 
d="M285 105q110 0 110 136q0 60 -28 92.5t-77 32.5q-54 0 -82.5 -36.5t-28.5 -95.5q0 -60 26 -94.5t80 -34.5zM282 -6q-109 0 -154 62q-42 -56 -128 -56q-24 0 -40 15.5t-16 40.5q0 24 16.5 40t39.5 16q71 0 71 90v31q0 115 58.5 180t162.5 65q100 0 154.5 -64t54.5 -178
q0 -120 -57.5 -181t-161.5 -61z" />
    <glyph glyph-name="uni0645.medi" unicode="&#x645;" horiz-adv-x="570" arabic-form="medial" 
d="M0 0q-24 0 -40 15.5t-16 40.5q0 24 16.5 40t39.5 16q71 0 71 90v31q0 115 58.5 180t162.5 65q99 0 153 -63.5t54 -181.5q0 -3 -1 -16.5t-1 -16.5q0 -44 16 -65.5t57 -22.5v-112q-99 0 -132 52q-54 -58 -156 -58q-109 0 -154 62q-42 -56 -128 -56zM288 366
q-54 0 -82 -36.5t-28 -95.5q0 -129 105 -129q110 0 110 135q0 60 -28 93t-77 33z" />
    <glyph glyph-name="uni0646.fina" unicode="&#x646;" horiz-adv-x="530" arabic-form="final" 
d="M472 389v-277h58v-112h-58q0 -88 -56.5 -147t-152.5 -59q-100 0 -152.5 54t-52.5 142v295h103v-266q0 -49 24 -81t79 -32q105 0 105 113v370h103zM312 450h-91v91h91v-91z" />
    <glyph glyph-name="uni0646.init" unicode="&#x646;" horiz-adv-x="229" arabic-form="initial" 
d="M68 455h103v-252q0 -203 -171 -203q-24 0 -40.5 15.5t-16.5 39.5t16.5 40t40.5 17q41 1 54.5 25t13.5 74v244zM160 530h-91v91h91v-91z" />
    <glyph glyph-name="uni0646.medi" unicode="&#x646;" horiz-adv-x="249" arabic-form="medial" 
d="M-57 55q0 21 16 39t41 18q37 0 54 21.5t17 70.5v186h103v-192q0 -44 16.5 -64.5t58.5 -21.5v-112q-92 0 -121 56q-40 -56 -128 -56q-24 0 -40.5 15.5t-16.5 39.5zM170 470h-91v91h91v-91z" />
    <glyph glyph-name="uniFEE9" unicode="&#x647;" horiz-adv-x="545" arabic-form="isolated" 
d="M279 477q82 0 145 -75.5t63 -189.5q0 -103 -55.5 -160.5t-158.5 -57.5q-113 0 -164 54.5t-51 161.5q0 111 65.5 189t155.5 78zM277 367q-45 0 -77 -44.5t-32 -104.5q0 -58 26 -85t82 -27q54 0 79.5 32t25.5 81q0 63 -33 105.5t-71 42.5z" />
    <glyph glyph-name="uni0647.fina" unicode="&#x647;" horiz-adv-x="541" arabic-form="final" 
d="M364 478h105v-272q0 -46 14.5 -69.5t57.5 -24.5v-112h-11q-56 0 -93 25t-48 63q-29 -26 -71 -41.5t-80 -15.5q-89 0 -134.5 43t-45.5 117q0 28 7.5 55.5t28.5 58.5t53.5 55.5t88.5 45t128 29.5v43zM245 139q120 0 120 127v66q-114 -13 -156.5 -50.5t-42.5 -76.5
q0 -30 21 -48t58 -18z" />
    <glyph glyph-name="uni0647.init" unicode="&#x647;" horiz-adv-x="691" arabic-form="initial" 
d="M-56 55q0 25 16 41t40 16h48q39 0 59 -4l2 4q-24 16 -37.5 49t-13.5 71q0 71 42 120t112 56q-14 28 -20 42q40 26 98 43t110 17q233 0 233 -264q0 -125 -64.5 -185.5t-158.5 -60.5h-410q-24 0 -40 15.5t-16 39.5zM381 115v-5q76 0 110 34.5t34 104.5q0 150 -130 150
q-34 0 -71 -15q44 -17 68 -57.5t24 -99.5v-9q-2 -63 -35 -103zM236 313q-36 0 -55.5 -25.5t-19.5 -60.5q0 -39 25 -69t73 -39q51 28 51 103q0 39 -18 65t-56 26z" />
    <glyph glyph-name="uni0647.medi" unicode="&#x647;" horiz-adv-x="708" arabic-form="medial" 
d="M58 232q0 71 42 120t112 56q-14 28 -20 42q40 26 98 43t110 17q234 0 234 -267v-12q0 -64 15 -91t59 -28v-112q-106 0 -140 62q-59 -62 -158 -62h-410q-25 0 -40.5 15.5t-15.5 40.5q0 24 15.5 40t40.5 16h50q37 0 57 -5q0 2 2 4q-24 17 -37.5 50.5t-13.5 70.5zM381 115
v-5q76 0 110.5 34t34.5 105q0 150 -131 150q-34 0 -71 -15q44 -17 68 -57.5t24 -99.5v-9q-2 -65 -35 -103zM236 313q-36 0 -55.5 -25.5t-19.5 -60.5q0 -39 25 -69t73 -39q51 27 51 103q0 39 -18 65t-56 26z" />
    <glyph glyph-name="uni0648.fina" unicode="&#x648;" horiz-adv-x="541" arabic-form="final" 
d="M280 478q97 0 150 -59.5t53 -175.5v-131h58v-112h-58q-3 -106 -63 -164t-167 -58h-152v113h149q64 0 93.5 34.5t29.5 77.5h-89q-226 0 -226 229q0 116 57.5 181t164.5 65zM377 112v120q0 133 -101 133q-52 0 -82.5 -34t-30.5 -100q0 -119 112 -119h102z" />
    <glyph glyph-name="uni0649.fina" unicode="&#x649;" horiz-adv-x="864" arabic-form="final" 
d="M580 0h-257q-265 0 -265 252v103h103v-72q0 -85 34.5 -128t121.5 -43h159v187q0 87 47.5 133t128.5 46h154v-366h58v-112h-162v364h-55q-37 0 -52 -21t-15 -62v-281z" />
    <glyph glyph-name="uni064A.fina" unicode="&#x64a;" horiz-adv-x="864" arabic-form="final" 
d="M580 0h-257q-265 0 -265 252v103h103v-72q0 -85 34.5 -128t121.5 -43h159v187q0 87 47.5 133t128.5 46h154v-366h58v-112h-162v364h-55q-37 0 -52 -21t-15 -62v-281zM516 -173h-91v91h91v-91zM394 -173h-90v91h90v-91z" />
    <glyph glyph-name="uni064A.init" unicode="&#x64a;" horiz-adv-x="229" arabic-form="initial" 
d="M68 455h103v-252q0 -203 -171 -203q-24 0 -40.5 15.5t-16.5 39.5t16.5 40t40.5 17q41 1 54.5 25t13.5 74v244zM220 -173h-91v91h91v-91zM98 -173h-90v91h90v-91z" />
    <glyph glyph-name="uni064A.medi" unicode="&#x64a;" horiz-adv-x="249" arabic-form="medial" 
d="M-57 55q0 21 16 39t41 18q37 0 54 21.5t17 70.5v186h103v-192q0 -44 16.5 -64.5t58.5 -21.5v-112q-92 0 -121 56q-40 -56 -128 -56q-24 0 -40.5 15.5t-16.5 39.5zM230 -173h-91v91h91v-91zM108 -173h-90v91h90v-91z" />
    <glyph glyph-name=".notdef" horiz-adv-x="450" 
d="M0 0v700h450v-700h-450zM109 73h232l-116 210zM225 418l116 209h-233zM73 554v-407l111 204zM266 349l111 -202v407z" />
    <glyph glyph-name=".null" horiz-adv-x="0" 
 />
    <glyph glyph-name="nonmarkingreturn" horiz-adv-x="333" 
 />
    <glyph glyph-name="space" unicode=" " horiz-adv-x="252" 
 />
    <glyph glyph-name="space" unicode="&#xa0;" horiz-adv-x="252" 
 />
    <glyph glyph-name="exclam" unicode="!" horiz-adv-x="268" 
d="M190 696l-10 -512h-92l-10 512h112zM194 0h-119v113h119v-113z" />
    <glyph glyph-name="quotedbl" unicode="&#x22;" horiz-adv-x="359" 
d="M297 481h-94v215h94v-215zM151 481h-94v215h94v-215z" />
    <glyph glyph-name="numbersign" unicode="#" horiz-adv-x="546" 
d="M417 410l-18 -123h95v-78h-106l-29 -209h-91l29 209h-98l-29 -209h-92l30 209h-89v78h101l17 123h-89v79h101l29 206h90l-29 -206h99l29 206h90l-29 -206h95v-79h-106zM228 410l-18 -123h99l18 123h-99z" />
    <glyph glyph-name="dollar" unicode="$" horiz-adv-x="525" 
d="M240 -111v107q-123 8 -214 92l68 88q70 -61 146 -69v187q-88 29 -139.5 74t-51.5 124q0 84 52 140t139 63v74h52v-74q102 -6 184 -65q-2 -3 -15.5 -26.5t-26.5 -45.5t-16 -26q-69 45 -126 52v-179q105 -32 156 -78t51 -130q0 -89 -57.5 -142.5t-149.5 -58.5v-107h-52z
M369 191q0 35 -20 54.5t-57 33.5v-171q77 12 77 83zM170 497q0 -47 70 -74v160q-32 -6 -51 -27.5t-19 -58.5z" />
    <glyph glyph-name="percent" unicode="%" horiz-adv-x="860" 
d="M795 121q0 -57 -41 -90.5t-99 -33.5q-57 0 -98 33.5t-41 90.5v174q0 57 41 91t98 34q58 0 99 -34t41 -91v-174zM707 124v169q0 24 -14 37t-38 13q-23 0 -37 -13t-14 -37v-169q0 -24 14 -37t37 -13q24 0 38 13t14 37zM344 400q0 -57 -41 -90.5t-99 -33.5q-57 0 -98 33.5
t-41 90.5v174q0 57 41 91t98 34q58 0 99 -34t41 -91v-174zM256 403v169q0 24 -14 37t-38 13q-23 0 -37 -13t-14 -37v-169q0 -24 14 -37t37 -13q24 0 38 13t14 37zM688 713l-426 -730h-89l425 730h90z" />
    <glyph glyph-name="ampersand" unicode="&#x26;" horiz-adv-x="649" 
d="M495 0l-51 66q-80 -72 -174 -72q-99 0 -150.5 51.5t-51.5 128.5q0 123 130 211q-25 33 -35 47t-22.5 43.5t-12.5 58.5q0 77 47.5 123t139.5 46q103 0 179 -65l-64 -83q-35 29 -61 38t-60 9q-35 0 -54 -19t-19 -47q0 -29 30 -70l180 -237q24 46 36 108l102 -22
q-20 -102 -70 -173q14 -17 53 -67t60 -75h-132zM382 145q-14 18 -57 74.5t-68 87.5q-82 -54 -82 -128q0 -37 25.5 -60t72.5 -23q56 0 109 49z" />
    <glyph glyph-name="quotesingle" unicode="'" horiz-adv-x="251" 
d="M170 481h-94v215h94v-215z" />
    <glyph glyph-name="parenleft" unicode="(" horiz-adv-x="332" 
d="M316 -83l-62 -48q-87 94 -142 206.5t-55 229.5q0 224 193 434l66 -42q-66 -87 -102 -189.5t-36 -197.5q0 -100 37 -203.5t101 -189.5z" />
    <glyph glyph-name="parenright" unicode=")" horiz-adv-x="332" 
d="M296 305q0 -117 -55 -229.5t-142 -206.5l-63 48q65 86 102 189t37 204q0 95 -36 197.5t-102 189.5l65 42q194 -209 194 -434z" />
    <glyph glyph-name="asterisk" unicode="*" horiz-adv-x="413" 
d="M264 512l79 -89q-15 -14 -73 -54l-61 103l-63 -104l-73 54l80 90q-52 14 -113 28q1 6 12 42t13 42l111 -47q-1 10 -6 60.5t-5 59.5h90l-12 -120l111 47l25 -84z" />
    <glyph glyph-name="plus" unicode="+" horiz-adv-x="525" 
d="M501 251h-191v-189h-95v189h-191v90h191v187h95v-187h191v-90z" />
    <glyph glyph-name="comma" unicode="," horiz-adv-x="276" 
d="M126 -132h-63l36 131h-33v139h137v-133z" />
    <glyph glyph-name="hyphen" unicode="-" horiz-adv-x="416" 
d="M367 211h-318v103h318v-103z" />
    <glyph glyph-name="period" unicode="." horiz-adv-x="270" 
d="M203 0h-136v138h136v-138z" />
    <glyph glyph-name="slash" unicode="/" horiz-adv-x="343" 
d="M336 725l-252 -767h-93l252 767h93z" />
    <glyph glyph-name="zero" unicode="0" horiz-adv-x="525" 
d="M475 197q0 -93 -61 -147.5t-147 -54.5q-85 0 -146 54.5t-61 147.5v301q0 93 61 148t146 55q86 0 147 -55t61 -148v-301zM360 201v294q0 47 -25 73t-68 26t-67.5 -26t-24.5 -73v-294q0 -47 24.5 -73t67.5 -26t68 26t25 73z" />
    <glyph glyph-name="one" unicode="1" horiz-adv-x="525" 
d="M350 0h-115v570l-97 -69v121l105 74h107v-696z" />
    <glyph glyph-name="two" unicode="2" horiz-adv-x="525" 
d="M169 494l-114 18q11 85 70.5 137t139.5 52q92 0 150 -49t58 -139q0 -78 -50 -137l-221 -266h267v-110h-418v103l274 330q29 37 29 74q0 35 -23.5 60t-65.5 25q-38 0 -63.5 -25.5t-32.5 -72.5z" />
    <glyph glyph-name="three" unicode="3" horiz-adv-x="525" 
d="M48 162l112 16q7 -37 33.5 -56.5t63.5 -19.5q45 0 73.5 30.5t28.5 78.5t-28 76t-77 28h-55v94h51q49 0 76.5 26.5t27.5 66.5q0 39 -27.5 65t-67.5 26q-31 0 -57.5 -20.5t-34.5 -60.5l-112 18q16 78 74 124.5t133 46.5q104 0 158 -55.5t54 -138.5q0 -40 -22.5 -80.5
t-66.5 -63.5q48 -24 72 -66t24 -86q0 -96 -62 -156t-161 -60q-76 0 -134.5 40.5t-75.5 126.5z" />
    <glyph glyph-name="four" unicode="4" horiz-adv-x="525" 
d="M499 101h-57v-101h-115v101h-299v98l241 497h127l-238 -489h169v193h115v-193h57v-106z" />
    <glyph glyph-name="five" unicode="5" horiz-adv-x="525" 
d="M479 265q0 -125 -52 -197.5t-164 -72.5q-181 0 -211 166l114 20q14 -81 95 -81q101 0 101 145q0 129 -97 129q-55 0 -86 -60h-108v382h389v-107h-280v-151q45 40 115 40q91 0 136.5 -57t47.5 -156z" />
    <glyph glyph-name="six" unicode="6" horiz-adv-x="525" 
d="M479 217q0 -109 -63.5 -165.5t-153.5 -56.5q-88 0 -147 56.5t-59 156.5q0 71 33 134l186 354h128l-150 -288l2 -2q21 6 44 6q81 0 130.5 -55.5t49.5 -139.5zM360 210q0 51 -27 79t-68 28q-39 0 -66.5 -28t-27.5 -79q0 -52 25.5 -80.5t68.5 -28.5q40 0 67.5 29t27.5 80z
" />
    <glyph glyph-name="seven" unicode="7" horiz-adv-x="525" 
d="M470 592l-245 -592h-124l239 586h-171v-99h-115v209h416v-104z" />
    <glyph glyph-name="eight" unicode="8" horiz-adv-x="525" 
d="M489 204q0 -92 -64.5 -150.5t-157.5 -58.5q-92 0 -157 58.5t-65 150.5q0 48 25 91.5t70 62.5v3q-40 18 -60.5 56t-20.5 83q0 86 59.5 143.5t148.5 57.5q99 0 154 -56t55 -145q0 -44 -21 -81t-60 -58v-2q45 -18 69.5 -62t24.5 -93zM362 499q0 44 -27 71t-68 27
q-40 0 -67 -26.5t-27 -71.5q0 -43 27.5 -67t66.5 -24t67 24.5t28 66.5zM375 207q0 43 -32 72.5t-76 29.5t-76 -29.5t-32 -72.5q0 -44 31.5 -75.5t76.5 -31.5t76.5 31t31.5 76z" />
    <glyph glyph-name="nine" unicode="9" horiz-adv-x="525" 
d="M57 479q0 109 63.5 165.5t153.5 56.5q88 0 147 -56.5t59 -156.5q0 -71 -33 -134l-186 -354h-128l150 288l-2 2q-21 -6 -44 -6q-81 0 -130.5 55.5t-49.5 139.5zM176 486q0 -51 27 -79t68 -28q39 0 66.5 28t27.5 79q0 52 -25.5 80.5t-68.5 28.5q-40 0 -67.5 -29t-27.5 -80z
" />
    <glyph glyph-name="colon" unicode=":" horiz-adv-x="271" 
d="M202 0h-136v138h136v-138zM202 276h-136v139h136v-139z" />
    <glyph glyph-name="semicolon" unicode=";" horiz-adv-x="271" 
d="M203 276h-136v139h136v-139zM126 -132h-62l35 131h-32v139h136v-133z" />
    <glyph glyph-name="less" unicode="&#x3c;" horiz-adv-x="525" 
d="M490 40l-460 213v87l460 213v-102l-340 -155l340 -155v-101z" />
    <glyph glyph-name="equal" unicode="=" horiz-adv-x="525" 
d="M501 357h-478v89h478v-89zM501 146h-478v90h478v-90z" />
    <glyph glyph-name="greater" unicode="&#x3e;" horiz-adv-x="525" 
d="M491 253l-460 -213v101l340 155l-340 155v102l460 -213v-87z" />
    <glyph glyph-name="question" unicode="?" horiz-adv-x="510" 
d="M470 510q0 -39 -24 -80.5t-52 -71.5t-52 -66.5t-24 -66.5v-36h-117v39q0 40 22.5 79.5t49 65.5t49 62t22.5 71q0 33 -23.5 58.5t-67.5 25.5t-70.5 -32t-29.5 -75q-59 9 -113 16q16 96 78 148.5t145 52.5q94 0 150.5 -53.5t56.5 -136.5zM318 0h-118v113h118v-113z" />
    <glyph glyph-name="at" unicode="@" horiz-adv-x="874" 
d="M585 409l-1 -149q0 -22 13 -37.5t35 -15.5q97 0 97 176q0 119 -81 190.5t-197 71.5q-134 0 -223 -90.5t-89 -221.5q0 -138 89 -224t231 -86q116 0 220 49l26 -73q-126 -50 -241 -50q-179 0 -294 103.5t-115 281.5q0 164 112.5 274t282.5 110q158 0 260.5 -93t102.5 -240
q0 -119 -50 -187t-141 -68q-28 0 -62.5 17.5t-44.5 46.5h-5q-13 -24 -44 -40.5t-69 -16.5q-61 0 -100.5 30t-39.5 89q0 51 36 85t99 34h105v28q0 57 -79 57q-48 0 -88 -35l-51 57q61 59 149 59q157 0 157 -132zM497 278v28h-90q-64 0 -64 -43q0 -19 17 -33.5t53 -14.5
q38 0 61 16t23 47z" />
    <glyph glyph-name="A" unicode="A" horiz-adv-x="629" 
d="M626 0h-128l-55 154h-258l-56 -154h-127l263 696h98zM407 257l-46 141l-46 143h-3l-45 -140l-47 -144h187z" />
    <glyph glyph-name="B" unicode="B" horiz-adv-x="618" 
d="M582 200q0 -88 -59.5 -144t-144.5 -56h-305v696h278q104 0 161 -52t57 -138q0 -100 -96 -143v-4q51 -15 80 -61.5t29 -97.5zM443 499q0 40 -27.5 64.5t-80.5 24.5h-141v-181h141q53 0 80.5 26t27.5 66zM459 207q0 41 -28 69.5t-82 28.5h-155v-195h155q54 0 82 28t28 69z
" />
    <glyph glyph-name="C" unicode="C" horiz-adv-x="572" 
d="M436 204l115 -48q-26 -76 -90 -119t-154 -43q-126 0 -192.5 74t-66.5 191v178q0 112 67.5 188t191.5 76q89 0 152.5 -43.5t90.5 -118.5l-114 -45q-13 42 -46.5 67t-82.5 25q-66 0 -101.5 -42.5t-35.5 -101.5v-185q0 -62 35.5 -105.5t101.5 -43.5q48 0 82 26t47 70z" />
    <glyph glyph-name="D" unicode="D" horiz-adv-x="638" 
d="M194 586v-476h119q84 0 120 44.5t36 128.5v130q0 91 -39.5 132t-118.5 41h-117zM73 696h253q175 0 237 -129q27 -55 27 -207q0 -163 -25 -222q-60 -138 -256 -138h-236v696z" />
    <glyph glyph-name="E" unicode="E" horiz-adv-x="564" 
d="M539 0h-466v696h466v-110h-345v-182h294v-106h-294v-188h345v-110z" />
    <glyph glyph-name="F" unicode="F" horiz-adv-x="545" 
d="M539 586h-345v-188h294v-105h-294v-293h-121v696h466v-110z" />
    <glyph glyph-name="G" unicode="G" horiz-adv-x="618" 
d="M308 104q58 0 99 42.5t41 99.5v30h-145v104h265v-137q0 -108 -74.5 -178.5t-185.5 -70.5q-126 0 -192 73.5t-66 191.5v178q0 112 66 188t189 76q90 0 153.5 -43.5t90.5 -118.5l-114 -45q-13 42 -47.5 67t-83.5 25q-65 0 -99 -42t-34 -102v-188q0 -61 36 -105.5t101 -44.5
z" />
    <glyph glyph-name="H" unicode="H" horiz-adv-x="655" 
d="M582 0h-120v298h-268v-298h-121v696h121v-292h268v292h120v-696z" />
    <glyph glyph-name="I" unicode="I" horiz-adv-x="268" 
d="M196 0h-122v696h122v-696z" />
    <glyph glyph-name="J" unicode="J" horiz-adv-x="489" 
d="M424 224q0 -121 -64 -175t-165 -54q-113 0 -190 86l86 79q51 -54 101 -54q111 0 111 122v468h121v-472z" />
    <glyph glyph-name="K" unicode="K" horiz-adv-x="638" 
d="M645 0h-143l-195 324l-113 -131v-193h-121v696h122v-337l2 -1l117 143l164 195h144l-235 -278z" />
    <glyph glyph-name="L" unicode="L" horiz-adv-x="564" 
d="M539 0h-466v696h121v-586h345v-110z" />
    <glyph glyph-name="M" unicode="M" horiz-adv-x="765" 
d="M702 0h-121v413h-3l-37 -89l-51 -112l-54 -114h-97l-40 85l-66 146l-36 85l-3 -3v-411h-121v696h113l91 -199q29 -63 109 -250h4l56 133l51 117l89 199h116v-696z" />
    <glyph glyph-name="N" unicode="N" horiz-adv-x="692" 
d="M621 0h-112l-215 324l-97 159l-3 -1v-482h-121v696h112l195 -296l118 -188l2 2v482h121v-696z" />
    <glyph glyph-name="O" unicode="O" horiz-adv-x="610" 
d="M304 701q118 0 189 -74t71 -190v-178q0 -121 -70.5 -193t-189.5 -72q-124 0 -191.5 76t-67.5 189v178q0 112 67.5 188t191.5 76zM304 587q-66 0 -101.5 -42.5t-35.5 -101.5v-187q0 -62 35.5 -105.5t101.5 -43.5q62 0 99.5 42t37.5 107v187q0 61 -37 102.5t-100 41.5z" />
    <glyph glyph-name="P" unicode="P" horiz-adv-x="591" 
d="M581 478q0 -86 -64.5 -148.5t-163.5 -62.5h-159v-267h-121v696h271q103 0 170 -57t67 -161zM457 481q0 52 -31 78.5t-85 26.5h-147v-209h151q51 0 81.5 30t30.5 74z" />
    <glyph glyph-name="Q" unicode="Q" horiz-adv-x="618" 
d="M307 701q119 0 190 -74t71 -190v-178q0 -75 -29 -133l86 -69l-66 -77l-85 66q-66 -52 -167 -52q-124 0 -191 76t-67 189v178q0 112 67 188t191 76zM307 586q-72 0 -104.5 -47t-32.5 -116v-166q0 -62 36 -105.5t101 -43.5q37 0 65 19l-83 66l67 80q13 -11 40.5 -33
t40.5 -32q8 24 8 49v166q0 70 -33.5 116.5t-104.5 46.5z" />
    <glyph glyph-name="R" unicode="R" horiz-adv-x="625" 
d="M580 0h-136l-121 287h-129v-287h-121v696h296q91 0 152 -54.5t61 -145.5q0 -66 -36.5 -116.5t-102.5 -74.5zM458 496q0 47 -29 70t-79 23h-156v-194h152q50 0 81 26.5t31 74.5z" />
    <glyph glyph-name="S" unicode="S" horiz-adv-x="569" 
d="M518 637l-60 -100q-79 52 -172 52q-60 0 -89 -24t-29 -64q0 -41 36.5 -59.5t133.5 -35.5q44 -8 76 -19.5t63.5 -33t48.5 -58.5t17 -89q0 -98 -75.5 -155t-186.5 -57q-168 0 -276 96l73 94q84 -77 209 -77q59 0 94 24.5t35 70.5q0 41 -30.5 63t-96.5 32q-43 6 -72.5 12.5
t-64 21t-55.5 34.5t-35 53.5t-14 78.5q0 98 69.5 151.5t166.5 53.5q143 0 234 -65z" />
    <glyph glyph-name="T" unicode="T" horiz-adv-x="521" 
d="M513 588h-194v-588h-121v588h-193v108h508v-108z" />
    <glyph glyph-name="U" unicode="U" horiz-adv-x="638" 
d="M579 247q0 -113 -73 -182.5t-187 -69.5q-117 0 -188 72.5t-71 184.5v444h120v-435q0 -66 38 -109.5t102 -43.5q63 0 100 38.5t37 109.5v440h122v-449z" />
    <glyph glyph-name="V" unicode="V" horiz-adv-x="575" 
d="M571 696l-235 -696h-99l-236 696h129l100 -318l56 -184h5l53 183l98 319h129z" />
    <glyph glyph-name="W" unicode="W" horiz-adv-x="839" 
d="M419 473q-1 0 -3 -1q-11 -43 -33.5 -127t-33.5 -127q-3 -13 -30 -107.5t-31 -111.5h-101l-181 696h129q46 -196 78 -340l28 -127h4l32 126q69 250 95 341h92q60 -208 96 -344l33 -124h4q5 23 14.5 70.5l10.5 52.5q54 244 79 345h128q-120 -464 -181 -696h-100
q-59 214 -70 251q-24 94 -59 223z" />
    <glyph glyph-name="X" unicode="X" horiz-adv-x="576" 
d="M575 0h-136l-152 257l-151 -257h-136l225 356l-212 340h137l137 -240l138 240h136l-211 -340z" />
    <glyph glyph-name="Y" unicode="Y" horiz-adv-x="557" 
d="M553 696q-144 -274 -217 -410v-286h-115v286q-40 74 -113 213t-104 197h129l84 -172q21 -44 61 -134h2l62 137l83 169h128z" />
    <glyph glyph-name="Z" unicode="Z" horiz-adv-x="527" 
d="M497 0h-467v104l323 485h-310v107h454v-99l-323 -486h323v-111z" />
    <glyph glyph-name="bracketleft" unicode="[" horiz-adv-x="288" 
d="M269 -100h-199v799h199v-82h-93v-636h93v-81z" />
    <glyph glyph-name="backslash" unicode="\" horiz-adv-x="343" 
d="M244 -42l-252 767h93l252 -767h-93z" />
    <glyph glyph-name="bracketright" unicode="]" horiz-adv-x="288" 
d="M221 -100h-199v81h93v636h-93v82h199v-799z" />
    <glyph glyph-name="asciicircum" unicode="^" horiz-adv-x="525" 
d="M505 282h-101l-140 298l-140 -299h-100l197 414h87z" />
    <glyph glyph-name="underscore" unicode="_" horiz-adv-x="500" 
d="M500 -145h-500v76h500v-76z" />
    <glyph glyph-name="grave" unicode="`" horiz-adv-x="504" 
d="M342 573l-67 -29l-123 179l108 36z" />
    <glyph glyph-name="a" unicode="a" horiz-adv-x="499" 
d="M245 500q205 0 205 -164v-336h-113v44q-1 1 -2 1q-37 -50 -129 -50q-80 0 -125.5 39t-45.5 110q0 63 44.5 106t123.5 43h134v36q0 71 -98 71q-75 0 -118 -41l-60 76q65 65 184 65zM142 152q0 -26 21 -43.5t67 -17.5q98 0 106 69q1 8 1 47h-115q-80 0 -80 -55z" />
    <glyph glyph-name="b" unicode="b" horiz-adv-x="515" 
d="M473 257q0 -262 -178 -262q-81 0 -122 53l-2 -1v-47h-113v727h113v-279l2 -1q49 53 122 53q176 0 178 -243zM357 248q0 30 -3 51.5t-11.5 45t-28.5 36t-50 12.5q-93 0 -93 -145q0 -150 93 -150q25 0 42.5 10t27 24t15 36t7 39.5t1.5 40.5z" />
    <glyph glyph-name="c" unicode="c" horiz-adv-x="447" 
d="M430 67q-76 -73 -175 -73q-97 0 -162 63.5t-65 189.5t67 189.5t164 63.5q99 0 169 -70l-73 -79q-44 46 -94 46q-117 0 -117 -150q0 -149 116 -149q49 0 96 47z" />
    <glyph glyph-name="d" unicode="d" horiz-adv-x="515" 
d="M463 0h-113v46l-2 2q-47 -53 -124 -53q-45 0 -78.5 15.5t-51.5 39t-29 59.5t-14 68t-3 74q0 47 8.5 87.5t28 79t58.5 61t93 22.5q74 0 112 -48l2 1v272h113v-726zM350 248q0 28 -3 49.5t-11.5 45.5t-28 37t-48.5 13q-31 0 -51.5 -13.5t-29 -38.5t-11.5 -47t-3 -53
q0 -28 3 -49t11.5 -43.5t28.5 -35t50 -12.5q93 0 93 147z" />
    <glyph glyph-name="e" unicode="e" horiz-adv-x="507" 
d="M466 215h-312q0 -50 26.5 -84.5t78.5 -34.5q25 0 58.5 12t58.5 35q12 -14 33 -39.5t33 -39.5q-75 -70 -187 -70q-34 0 -63.5 6.5t-58.5 24t-49.5 45t-33.5 73t-13 103.5q0 68 19 119.5t51 80t68.5 42t77.5 13.5q99 0 156 -64t57 -173v-49zM252 398q-39 0 -65.5 -27.5
t-30.5 -75.5h190q-3 49 -29 76t-65 27z" />
    <glyph glyph-name="f" unicode="f" horiz-adv-x="302" 
d="M293 404h-101v-404h-113v404h-58v91h58v96q0 67 39.5 102t101.5 35h73v-98h-55q-46 0 -46 -52v-83h101v-91z" />
    <glyph glyph-name="g" unicode="g" horiz-adv-x="522" 
d="M345 495h111v-475q0 -223 -221 -223q-105 0 -172 60l59 83q55 -40 122 -40q47 0 74.5 26.5t27.5 75.5v46h-2q-46 -53 -119 -53q-182 0 -182 241q0 264 185 264q75 0 115 -50h2v45zM158 247q0 -32 3 -54t11.5 -45t28.5 -35t51 -12q93 0 93 146q0 28 -2.5 48t-10.5 45.5
t-28 39.5t-51 14t-51.5 -13t-29 -37t-11.5 -45.5t-3 -51.5z" />
    <glyph glyph-name="h" unicode="h" horiz-adv-x="529" 
d="M485 0h-113v294q0 100 -89 100q-42 0 -69.5 -27t-27.5 -73v-294h-113v726h113v-279h3q23 24 58 38.5t69 14.5q74 0 121.5 -45.5t47.5 -129.5v-325z" />
    <glyph glyph-name="i" unicode="i" horiz-adv-x="247" 
d="M180 592h-113v104h113v-104zM180 0h-113v495h113v-495z" />
    <glyph glyph-name="j" unicode="j" horiz-adv-x="265" 
d="M190 592h-114v104h114v-104zM190 496v-555q0 -65 -37.5 -103.5t-108.5 -38.5h-52v100h28q56 0 56 59v538h114z" />
    <glyph glyph-name="k" unicode="k" horiz-adv-x="520" 
d="M523 0h-132q-25 37 -73 111l-72 111q-1 -2 -28.5 -31t-41.5 -45v-146h-112v726h112v-435h3l96 110l86 94h138l-179 -193q17 -25 90 -134.5t113 -167.5z" />
    <glyph glyph-name="l" unicode="l" horiz-adv-x="265" 
d="M245 0h-43q-138 0 -138 131v595h113v-578q0 -26 12 -37t36 -11h20v-100z" />
    <glyph glyph-name="m" unicode="m" horiz-adv-x="833" 
d="M772 0h-112v295q0 101 -93 101q-40 0 -66.5 -28.5t-26.5 -72.5v-295h-113v295q0 48 -23.5 74.5t-69.5 26.5q-40 0 -67 -28.5t-27 -72.5v-295h-113v495h113v-53h1q1 -1 2 -1q21 27 57.5 43t74.5 16q93 0 137 -71q68 71 157 71q77 0 123 -45.5t46 -128.5v-326z" />
    <glyph glyph-name="n" unicode="n" horiz-adv-x="529" 
d="M470 0h-113v294q0 100 -91 100q-42 0 -68.5 -27t-26.5 -73v-294h-113v496h113v-52h2q23 26 58.5 41t70.5 15q78 0 123 -45t45 -130v-325z" />
    <glyph glyph-name="o" unicode="o" horiz-adv-x="515" 
d="M264 501q116 0 172 -83q38 -59 36 -163q0 -109 -34 -168q-28 -46 -77 -70t-109 -24q-118 0 -171 78q-41 61 -39 176q0 89 25 140q25 54 77 84t120 30zM260 399q-61 0 -87 -56q-15 -33 -17 -97q0 -65 15 -95q24 -55 84 -55q71 0 93 71q9 29 9 88q0 58 -13 87
q-22 57 -84 57z" />
    <glyph glyph-name="p" unicode="p" horiz-adv-x="516" 
d="M60 495h112v-44l3 -1q45 50 121 50q56 0 93.5 -22.5t55 -62.5t24 -79.5t6.5 -89.5q0 -48 -8 -88.5t-27.5 -79.5t-59 -61.5t-96.5 -22.5q-73 0 -110 47h-2v-241h-112v695zM172 246q0 -146 92 -146q30 0 50 13t29 36t12 45.5t3 51.5q0 24 -1 40.5t-6.5 38.5t-14.5 35.5
t-27 23.5t-43 10q-94 0 -94 -148z" />
    <glyph glyph-name="q" unicode="q" horiz-adv-x="522" 
d="M53 238q0 262 192 262q68 0 109 -51h2v46h113v-697h-113v249h-2q-49 -53 -120 -53q-55 0 -92.5 21t-55.5 58.5t-25.5 76.5t-7.5 88zM169 246q0 -30 3 -51.5t11.5 -45t28.5 -36t51 -12.5q93 0 93 145q0 151 -92 151q-25 0 -43 -10t-28 -24.5t-15.5 -36.5t-7 -39.5
t-1.5 -40.5z" />
    <glyph glyph-name="r" unicode="r" horiz-adv-x="388" 
d="M270 395q-42 0 -67.5 -25.5t-25.5 -72.5v-298h-113v496h111v-59h4q45 64 120 64q57 0 94 -26l-42 -102q-38 23 -81 23z" />
    <glyph glyph-name="s" unicode="s" horiz-adv-x="463" 
d="M433 151q0 -72 -58 -114.5t-144 -42.5q-130 0 -215 75l61 81q64 -59 159 -59q37 0 61.5 15.5t24.5 41.5q0 25 -21 38t-67 18q-33 4 -54 7.5t-49.5 13.5t-44.5 23.5t-28 38.5t-12 58q0 73 53 114t132 41q116 0 190 -56l-54 -86q-65 43 -134 43q-38 0 -59 -15t-21 -38
q0 -24 27 -35.5t91 -18.5q162 -18 162 -143z" />
    <glyph glyph-name="t" unicode="t" horiz-adv-x="316" 
d="M285 0h-68q-56 0 -91.5 33t-35.5 91v280h-57v92h58v129h110v-129h76v-92h-75v-249q0 -56 46 -56h37v-99z" />
    <glyph glyph-name="u" unicode="u" horiz-adv-x="533" 
d="M59 495h112v-295q0 -52 21.5 -76.5t70.5 -24.5q41 0 68 27.5t27 73.5v295h113v-495h-113v49h-3q-45 -55 -126 -55q-80 0 -125 44t-45 132v325z" />
    <glyph glyph-name="v" unicode="v" horiz-adv-x="480" 
d="M240 155h3l43 138l67 202h122l-189 -495h-91l-190 495h122q13 -38 36.5 -111.5t29.5 -90.5q32 -92 47 -138z" />
    <glyph glyph-name="w" unicode="w" horiz-adv-x="736" 
d="M514 168h6q4 12 7.5 26.5t8 32t6.5 26.5q5 15 11.5 40t21 78.5t34.5 123.5h121q-54 -165 -164 -495h-99q-18 59 -70 231l-29 94h-2l-31 -106q-32 -110 -67 -219h-99l-164 495h121q14 -46 40 -140q8 -26 24.5 -88.5t26.5 -95.5h4q7 21 42 139l58 185h95q39 -123 74 -243z
" />
    <glyph glyph-name="x" unicode="x" horiz-adv-x="501" 
d="M490 0h-136l-104 167l-103 -167h-136l180 253l-172 242h135l96 -160l97 160h135l-172 -243z" />
    <glyph glyph-name="y" unicode="y" horiz-adv-x="470" 
d="M470 495l-218 -595q-37 -100 -144 -100h-42v95h31q41 0 60 52l25 78l-182 470h122l64 -182l49 -156h4l49 154l63 184h119z" />
    <glyph glyph-name="z" unicode="z" horiz-adv-x="449" 
d="M417 0h-386v94l249 304h-235v97h372v-92l-248 -301h248v-102z" />
    <glyph glyph-name="braceleft" unicode="{" horiz-adv-x="288" 
d="M279 -98h-83q-41 0 -70 26.5t-34 71.5q-2 22 -2 35v101q0 25 -1 36q-6 84 -76 88v77q38 4 57.5 33.5t19.5 76.5v133q0 52 30.5 84t75.5 32h83v-78h-41q-23 0 -33 -21.5t-10 -50.5v-121q0 -50 -23.5 -81t-52.5 -44v-2q30 -11 53 -42.5t23 -80.5v-124q0 -72 43 -72h41v-77z
" />
    <glyph glyph-name="bar" unicode="|" horiz-adv-x="232" 
d="M163 -195h-95v918h95v-918z" />
    <glyph glyph-name="braceright" unicode="}" horiz-adv-x="288" 
d="M276 260q-43 1 -60 -35t-17 -89v-101q0 -24 -2 -35q-5 -45 -33.5 -71.5t-69.5 -26.5h-83v77h41q43 0 43 72v124q0 49 23 81t53 42v2q-29 12 -52.5 43.5t-23.5 81.5v121q0 72 -43 72h-41v76h82q48 0 77 -31.5t29 -82.5v-133q0 -45 20 -77t57 -33v-77z" />
    <glyph glyph-name="asciitilde" unicode="~" horiz-adv-x="525" 
d="M494 308q-57 -107 -139 -107q-30 0 -90 29.5t-83 29.5q-24 0 -41.5 -11.5t-40.5 -41.5q-44 28 -66 43q57 105 144 105q33 -1 90.5 -30.5t79.5 -29.5q21 0 38.5 14t40.5 44z" />
    <glyph glyph-name="cent" unicode="&#xa2;" horiz-adv-x="525" 
d="M257 -117v113q-86 10 -141 72.5t-55 178.5q0 114 55 177t141 74v103h45v-101q92 -4 159 -70l-73 -79q-41 41 -86 46v-299q44 4 87 47l74 -78q-71 -68 -161 -72v-112h-45zM177 247q0 -125 80 -145v290q-80 -22 -80 -145z" />
    <glyph glyph-name="sterling" unicode="&#xa3;" horiz-adv-x="525" 
d="M489 592l-96 -66q-47 69 -119 69q-31 0 -56 -23t-25 -64q0 -25 18 -72t22 -69h150v-87h-146q-5 -107 -50 -179h295v-101h-443v86q71 94 78 194h-80v87h67q-5 16 -16.5 46t-17.5 53t-6 44q0 78 53.5 134t153.5 56q76 0 123 -20.5t95 -87.5z" />
    <glyph glyph-name="currency" unicode="&#xa4;" horiz-adv-x="556" 
d="M155 320q0 -49 35.5 -84.5t84.5 -35.5q50 0 85.5 35t35.5 85q0 51 -35 85.5t-86 34.5q-50 0 -85 -35t-35 -85zM101 433l-68 67q8 9 61 62l68 -68q56 35 114 35q59 0 114 -34q32 35 67 67l61 -62l-68 -67q35 -56 35 -113t-34 -113q30 -27 67 -66l-61 -62l-67 67
q-53 -35 -114 -35q-58 0 -114 35l-68 -67q-3 3 -16 16.5t-29 28.5l-16 16l68 67q-34 55 -34 113q0 56 34 113z" />
    <glyph glyph-name="yen" unicode="&#xa5;" horiz-adv-x="525" 
d="M264 386h4l58 146l72 164h123q-53 -111 -161 -333h110v-68h-145l-5 -17v-52h150v-68h-150v-158h-114v158h-148v68h148v52q-1 4 -2.5 9t-2.5 8h-143v68h108q-55 111 -163 333h129l81 -186q11 -24 29 -69.5t22 -54.5z" />
    <glyph glyph-name="brokenbar" unicode="&#xa6;" horiz-adv-x="232" 
d="M163 294h-95v429h95v-429zM68 232h95v-427h-95v427z" />
    <glyph glyph-name="section" unicode="&#xa7;" horiz-adv-x="488" 
d="M454 292q0 -32 -15.5 -62.5t-37.5 -46.5q44 -42 44 -94q0 -77 -58 -123t-148 -46q-120 0 -200 80l63 73q60 -60 138 -60q99 0 99 71q0 27 -25 45t-85 36q-91 28 -133.5 63.5t-42.5 105.5q0 30 17.5 59.5t42.5 46.5q-48 43 -48 99q0 72 54 116.5t135 44.5q115 0 189 -59
l-57 -78q-62 43 -137 43q-33 0 -57 -17.5t-24 -43.5q0 -15 8.5 -27t26 -21t31.5 -14t39.5 -13t34.5 -11q32 -10 54.5 -21.5t45 -30.5t34.5 -48t12 -67zM185 391q-31 -18 -31 -51q0 -35 53 -57q19 -9 62.5 -22.5t62.5 -22.5q23 17 23 50q0 29 -25.5 46.5t-90.5 37.5
q-21 6 -54 19z" />
    <glyph glyph-name="dieresis" unicode="&#xa8;" horiz-adv-x="504" 
d="M410 583h-118v109h118v-109zM211 583h-119v109h119v-109z" />
    <glyph glyph-name="copyright" unicode="&#xa9;" horiz-adv-x="812" 
d="M408 -12q-152 0 -252 99.5t-100 254.5q0 152 101 253.5t251 101.5t251 -100.5t101 -254.5q0 -152 -101 -253t-251 -101zM408 627q-118 0 -197 -81.5t-79 -203.5q0 -121 79 -202.5t197 -81.5t196.5 81t78.5 203q0 124 -78.5 204.5t-196.5 80.5zM488 250l77 -32
q-17 -50 -57.5 -77.5t-97.5 -27.5q-79 0 -121 46.5t-42 120.5v109q0 70 42.5 118.5t120.5 48.5q57 0 97 -28.5t57 -76.5l-76 -30q-9 26 -29 42t-49 16q-40 0 -61 -25t-21 -61v-115q0 -36 21.5 -62.5t60.5 -26.5q29 0 49.5 16.5t28.5 44.5z" />
    <glyph glyph-name="guillemotleft" unicode="&#xab;" horiz-adv-x="525" 
d="M491 28h-109l-137 200l137 200h109l-133 -200zM291 28h-109l-137 200l137 200h109l-134 -200z" />
    <glyph glyph-name="logicalnot" unicode="&#xac;" horiz-adv-x="525" 
d="M500 341v-279h-94v189h-382v90h476z" />
    <glyph glyph-name="sfthyphen" unicode="&#xad;" horiz-adv-x="416" 
d="M367 211h-318v103h318v-103z" />
    <glyph glyph-name="registered" unicode="&#xae;" horiz-adv-x="543" 
d="M320 367l-47 97h-35v-97h-47v243h99q32 0 53.5 -19.5t21.5 -51.5q0 -45 -44 -67l52 -105h-53zM287 567h-49v-59h47q15 0 24.5 8.5t9.5 22.5q0 28 -32 28zM272 277q-92 0 -153.5 60t-61.5 151t63 152t152 61q92 0 153.5 -61t61.5 -152q0 -90 -63 -150.5t-152 -60.5z
M272 657q-71 0 -119 -48.5t-48 -120.5q0 -71 48 -119.5t119 -48.5t118.5 48.5t47.5 119.5q0 72 -47.5 120.5t-118.5 48.5z" />
    <glyph glyph-name="macron" unicode="&#xaf;" horiz-adv-x="504" 
d="M410 589h-301v97h301v-97z" />
    <glyph glyph-name="degree" unicode="&#xb0;" horiz-adv-x="409" 
d="M353 558q0 -60 -43.5 -102t-105.5 -42t-105.5 42t-43.5 102q0 59 43.5 101t105.5 42t105.5 -42t43.5 -101zM277 558q0 29 -21 49.5t-52 20.5q-29 0 -50.5 -20.5t-21.5 -49.5t21.5 -50t50.5 -21q31 0 52 21t21 50z" />
    <glyph glyph-name="plusminus" unicode="&#xb1;" horiz-adv-x="525" 
d="M501 306h-189v-174h-95v174h-189v90h189v178h95v-178h189v-90zM503 0h-477v89h477v-89z" />
    <glyph glyph-name="twosuperior" unicode="&#xb2;" horiz-adv-x="327" 
d="M111 653l-88 12q7 56 48.5 90t95.5 34q61 0 100 -30.5t39 -85.5q0 -48 -35 -85q-8 -9 -61 -67t-67 -74h159v-78h-280v70l176 193q17 19 17 37q0 17 -13 29.5t-35 12.5q-21 0 -36.5 -15t-19.5 -43z" />
    <glyph glyph-name="threesuperior" unicode="&#xb3;" horiz-adv-x="331" 
d="M20 476l86 12q9 -46 56 -46q25 0 41 16t16 40t-16 38.5t-44 14.5h-37v69h35q27 0 42.5 13t15.5 33t-15 33t-37 13q-17 0 -32.5 -12.5t-21.5 -35.5l-85 12q11 51 51 82t90 31q70 0 105.5 -34t35.5 -86q0 -57 -49 -83q54 -27 54 -88q0 -58 -41.5 -95t-107.5 -37
q-51 0 -91 27t-51 83z" />
    <glyph glyph-name="acute" unicode="&#xb4;" horiz-adv-x="504" 
d="M256 544l-68 25l79 190l107 -34z" />
    <glyph glyph-name="mu" unicode="&#xb5;" horiz-adv-x="537" 
d="M476 0h-113v45q-1 1 -3 1q-45 -51 -119 -51q-34 0 -63 16l-1 -1v-210h-113v695h113v-295q0 -45 23.5 -72t69.5 -27q41 0 67 26.5t26 72.5v295h113v-495z" />
    <glyph glyph-name="mu" unicode="&#x3bc;" horiz-adv-x="537" 
d="M476 0h-113v45q-1 1 -3 1q-45 -51 -119 -51q-34 0 -63 16l-1 -1v-210h-113v695h113v-295q0 -45 23.5 -72t69.5 -27q41 0 67 26.5t26 72.5v295h113v-495z" />
    <glyph glyph-name="paragraph" unicode="&#xb6;" horiz-adv-x="563" 
d="M224 -80v397h-32q-73 0 -115 56t-42 132q0 80 48 139.5t134 59.5q27 0 150.5 0.5t152.5 0.5v-76h-43v-709h-87v709h-77v-709h-89z" />
    <glyph glyph-name="periodcentered" unicode="&#xb7;" horiz-adv-x="271" 
d="M203 205h-136v138h136v-138z" />
    <glyph glyph-name="cedilla" unicode="&#xb8;" horiz-adv-x="447" 
d="M214 44q10 0 29.5 -0.5t29.5 -0.5q-21 -62 -26 -80q50 -4 74 -29.5t24 -57.5q0 -35 -30 -62t-84 -27q-56 0 -100 24l21 52q35 -16 72 -16q44 0 44 33q0 32 -43 32q-7 0 -17 -2l-30 20z" />
    <glyph glyph-name="onesuperior" unicode="&#xb9;" horiz-adv-x="278" 
d="M199 369h-89v323l-61 -40v88l72 46h78v-417z" />
    <glyph glyph-name="guillemotright" unicode="&#xbb;" horiz-adv-x="525" 
d="M155 28h-109l132 200l-132 200h109l136 -200zM355 28h-109l133 200l-133 200h109l136 -200z" />
    <glyph glyph-name="onequarter" unicode="&#xbc;" horiz-adv-x="860" 
d="M243 279h-89v323l-61 -40v88l72 46h78v-417zM661 713l-426 -730h-89l425 730h90zM767 59h-36v-59h-88v59h-190v65l155 293h98l-151 -282h88v95h88v-95h36v-76z" />
    <glyph glyph-name="onehalf" unicode="&#xbd;" horiz-adv-x="860" 
d="M779 0h-280v70l176 193v-1q17 20 17 38q0 17 -13.5 29.5t-36.5 12.5q-21 0 -36 -15t-19 -43l-87 12q7 56 47.5 89.5t94.5 33.5q62 0 101 -30t39 -85q0 -48 -34 -85l-129 -141h160v-78zM643 713l-426 -730h-89l425 730h90zM228 279h-89v323l-61 -40v88l72 46h78v-417z" />
    <glyph glyph-name="threequarters" unicode="&#xbe;" horiz-adv-x="860" 
d="M45 386l86 12q9 -46 56 -46q25 0 41 16t16 40t-16 38.5t-44 14.5h-37v69h35q27 0 42.5 13t15.5 33t-15 33t-37 13q-17 0 -32.5 -12.5t-21.5 -35.5l-85 12q11 51 51 82t90 31q70 0 105.5 -34t35.5 -86q0 -57 -49 -83q54 -27 54 -88q0 -58 -41.5 -95t-107.5 -37
q-51 0 -91 27t-51 83zM709 713l-426 -730h-89l425 730h90zM814 59h-36v-59h-88v59h-190v65l155 293h98l-151 -282h88v95h88v-95h36v-76z" />
    <glyph glyph-name="Adieresis" unicode="&#xc4;" horiz-adv-x="629" 
d="M626 0h-128l-55 154h-258l-56 -154h-127l263 696h98zM407 257l-46 141l-46 143h-3l-45 -140l-47 -144h187zM472 757h-120v111h120v-111zM275 757h-121v111h121v-111z" />
    <glyph glyph-name="Ccedilla" unicode="&#xc7;" horiz-adv-x="572" 
d="M436 204l115 -48q-26 -74 -86.5 -116.5t-146.5 -45.5l-9 -31q50 -4 74 -29.5t24 -57.5q0 -35 -30 -62t-84 -27q-56 0 -100 24l21 52q35 -16 72 -16q44 0 44 33q0 32 -43 32q-7 0 -17 -2l-30 20l21 67q-104 14 -158.5 85.5t-54.5 176.5v178q0 112 67.5 188t191.5 76
q89 0 152.5 -43.5t90.5 -118.5l-114 -45q-13 42 -46.5 67t-82.5 25q-66 0 -101.5 -42.5t-35.5 -101.5v-185q0 -62 35.5 -105.5t101.5 -43.5q48 0 82 26t47 70z" />
    <glyph glyph-name="Eacute" unicode="&#xc9;" horiz-adv-x="564" 
d="M539 0h-466v696h466v-110h-345v-182h294v-106h-294v-188h345v-110zM262 735l-47 56l165 125l74 -84z" />
    <glyph glyph-name="Ntilde" unicode="&#xd1;" horiz-adv-x="692" 
d="M621 0h-112l-215 324l-97 159l-3 -1v-482h-121v696h112l195 -296l118 -188l2 2v482h121v-696zM274 876q27 0 73 -24t60 -24q31 0 64 47l60 -35q-46 -99 -114 -99q-27 0 -74 23t-64 23q-33 0 -69 -45l-57 33q49 101 121 101z" />
    <glyph glyph-name="Odieresis" unicode="&#xd6;" horiz-adv-x="610" 
d="M304 701q118 0 189 -74t71 -190v-178q0 -121 -70.5 -193t-189.5 -72q-124 0 -191.5 76t-67.5 189v178q0 112 67.5 188t191.5 76zM304 587q-66 0 -101.5 -42.5t-35.5 -101.5v-187q0 -62 35.5 -105.5t101.5 -43.5q62 0 99.5 42t37.5 107v187q0 61 -37 102.5t-100 41.5z
M463 757h-120v111h120v-111zM266 757h-121v111h121v-111z" />
    <glyph glyph-name="multiply" unicode="&#xd7;" horiz-adv-x="525" 
d="M433 56l-165 165l-161 -161l-67 66l161 161l-164 165l64 63l164 -164l159 160l67 -67l-160 -159l165 -165z" />
    <glyph glyph-name="Udieresis" unicode="&#xdc;" horiz-adv-x="638" 
d="M579 247q0 -113 -73 -182.5t-187 -69.5q-117 0 -188 72.5t-71 184.5v444h120v-435q0 -66 38 -109.5t102 -43.5q63 0 100 38.5t37 109.5v440h122v-449zM480 757h-120v111h120v-111zM283 757h-121v111h121v-111z" />
    <glyph glyph-name="agrave" unicode="&#xe0;" horiz-adv-x="499" 
d="M245 500q205 0 205 -164v-336h-113v44q-1 1 -2 1q-37 -50 -129 -50q-80 0 -125.5 39t-45.5 110q0 63 44.5 106t123.5 43h134v36q0 71 -98 71q-75 0 -118 -41l-60 76q65 65 184 65zM142 152q0 -26 21 -43.5t67 -17.5q98 0 106 69q1 8 1 47h-115q-80 0 -80 -55zM314 573
l-67 -29l-123 179l108 36z" />
    <glyph glyph-name="aacute" unicode="&#xe1;" horiz-adv-x="499" 
d="M245 500q205 0 205 -164v-336h-113v44q-1 1 -2 1q-37 -50 -129 -50q-80 0 -125.5 39t-45.5 110q0 63 44.5 106t123.5 43h134v36q0 71 -98 71q-75 0 -118 -41l-60 76q65 65 184 65zM142 152q0 -26 21 -43.5t67 -17.5q98 0 106 69q1 8 1 47h-115q-80 0 -80 -55zM281 544
l-68 25l79 190l107 -34z" />
    <glyph glyph-name="acircumflex" unicode="&#xe2;" horiz-adv-x="499" 
d="M245 500q205 0 205 -164v-336h-113v44q-1 1 -2 1q-37 -50 -129 -50q-80 0 -125.5 39t-45.5 110q0 63 44.5 106t123.5 43h134v36q0 71 -98 71q-75 0 -118 -41l-60 76q65 65 184 65zM387 537l-139 105q-10 -7 -68 -51.5t-72 -53.5l-46 43l149 154h78l146 -153zM142 152
q0 -26 21 -43.5t67 -17.5q98 0 106 69q1 8 1 47h-115q-80 0 -80 -55z" />
    <glyph glyph-name="adieresis" unicode="&#xe4;" horiz-adv-x="499" 
d="M245 500q205 0 205 -164v-336h-113v44q-1 1 -2 1q-37 -50 -129 -50q-80 0 -125.5 39t-45.5 110q0 63 44.5 106t123.5 43h134v36q0 71 -98 71q-75 0 -118 -41l-60 76q65 65 184 65zM142 152q0 -26 21 -43.5t67 -17.5q98 0 106 69q1 8 1 47h-115q-80 0 -80 -55zM212 583
h-119v109h119v-109zM411 583h-118v109h118v-109z" />
    <glyph glyph-name="ccedilla" unicode="&#xe7;" horiz-adv-x="447" 
d="M430 67q-75 -72 -172 -73l-9 -31q50 -4 74 -29.5t24 -57.5q0 -35 -30 -62t-84 -27q-56 0 -100 24l21 52q35 -16 72 -16q44 0 44 33q0 32 -43 32q-7 0 -17 -2l-30 20l22 69q-78 15 -126 77.5t-48 170.5q0 126 67 189.5t164 63.5q99 0 169 -70l-73 -79q-44 46 -94 46
q-117 0 -117 -150q0 -149 116 -149q49 0 96 47z" />
    <glyph glyph-name="egrave" unicode="&#xe8;" horiz-adv-x="507" 
d="M466 215h-312q0 -50 26.5 -84.5t78.5 -34.5q25 0 58.5 12t58.5 35q12 -14 33 -39.5t33 -39.5q-75 -70 -187 -70q-34 0 -63.5 6.5t-58.5 24t-49.5 45t-33.5 73t-13 103.5q0 68 19 119.5t51 80t68.5 42t77.5 13.5q99 0 156 -64t57 -173v-49zM252 398q-39 0 -65.5 -27.5
t-30.5 -75.5h190q-3 49 -29 76t-65 27zM316 573l-67 -29l-123 179l108 36z" />
    <glyph glyph-name="eacute" unicode="&#xe9;" horiz-adv-x="507" 
d="M466 215h-312q0 -50 26.5 -84.5t78.5 -34.5q25 0 58.5 12t58.5 35q12 -14 33 -39.5t33 -39.5q-75 -70 -187 -70q-34 0 -63.5 6.5t-58.5 24t-49.5 45t-33.5 73t-13 103.5q0 68 19 119.5t51 80t68.5 42t77.5 13.5q99 0 156 -64t57 -173v-49zM252 398q-39 0 -65.5 -27.5
t-30.5 -75.5h190q-3 49 -29 76t-65 27zM266 544l-68 25l79 190l107 -34z" />
    <glyph glyph-name="ecircumflex" unicode="&#xea;" horiz-adv-x="507" 
d="M466 215h-312q0 -50 26.5 -84.5t78.5 -34.5q25 0 58.5 12t58.5 35q12 -14 33 -39.5t33 -39.5q-75 -70 -187 -70q-34 0 -63.5 6.5t-58.5 24t-49.5 45t-33.5 73t-13 103.5q0 68 19 119.5t51 80t68.5 42t77.5 13.5q99 0 156 -64t57 -173v-49zM252 398q-39 0 -65.5 -27.5
t-30.5 -75.5h190q-3 49 -29 76t-65 27zM397 537l-139 105q-10 -7 -68 -51.5t-72 -53.5l-46 43l149 154h78l146 -153z" />
    <glyph glyph-name="edieresis" unicode="&#xeb;" horiz-adv-x="507" 
d="M466 215h-312q0 -50 26.5 -84.5t78.5 -34.5q25 0 58.5 12t58.5 35q12 -14 33 -39.5t33 -39.5q-75 -70 -187 -70q-34 0 -63.5 6.5t-58.5 24t-49.5 45t-33.5 73t-13 103.5q0 68 19 119.5t51 80t68.5 42t77.5 13.5q99 0 156 -64t57 -173v-49zM252 398q-39 0 -65.5 -27.5
t-30.5 -75.5h190q-3 49 -29 76t-65 27zM415 583h-118v109h118v-109zM216 583h-119v109h119v-109z" />
    <glyph glyph-name="iacute" unicode="&#xed;" horiz-adv-x="235" 
d="M175 0h-115v495h115v-495zM140 544l-68 25l79 190l107 -34z" />
    <glyph glyph-name="icircumflex" unicode="&#xee;" horiz-adv-x="333" 
d="M222 0h-115v495h115v-495zM305 537l-139 105q-10 -7 -68 -51.5t-72 -53.5l-46 43l149 154h78l146 -153z" />
    <glyph glyph-name="idieresis" unicode="&#xef;" horiz-adv-x="278" 
d="M197 0h-115v495h115v-495zM298 583h-118v109h118v-109zM99 583h-119v109h119v-109z" />
    <glyph glyph-name="ntilde" unicode="&#xf1;" horiz-adv-x="529" 
d="M470 0h-113v294q0 100 -91 100q-42 0 -68.5 -27t-26.5 -73v-294h-113v496h113v-52h2q23 26 58.5 41t70.5 15q78 0 123 -45t45 -130v-325zM183 705q27 0 73 -24t60 -24q31 0 64 47l60 -35q-46 -99 -114 -99q-27 0 -74 23t-64 23q-33 0 -69 -45l-57 33q49 101 121 101z" />
    <glyph glyph-name="oacute" unicode="&#xf3;" horiz-adv-x="515" 
d="M264 501q116 0 172 -83q38 -59 36 -163q0 -109 -34 -168q-28 -46 -77 -70t-109 -24q-118 0 -171 78q-41 61 -39 176q0 89 25 140q25 54 77 84t120 30zM260 399q-61 0 -87 -56q-15 -33 -17 -97q0 -65 15 -95q24 -55 84 -55q71 0 93 71q9 29 9 88q0 58 -13 87
q-22 57 -84 57zM285 544l-68 25l79 190l107 -34z" />
    <glyph glyph-name="ocircumflex" unicode="&#xf4;" horiz-adv-x="515" 
d="M264 501q116 0 172 -83q38 -59 36 -163q0 -109 -34 -168q-28 -46 -77 -70t-109 -24q-118 0 -171 78q-41 61 -39 176q0 89 25 140q25 54 77 84t120 30zM260 399q-61 0 -87 -56q-15 -33 -17 -97q0 -65 15 -95q24 -55 84 -55q71 0 93 71q9 29 9 88q0 58 -13 87
q-22 57 -84 57zM397 537l-139 105q-10 -7 -68 -51.5t-72 -53.5l-46 43l149 154h78l146 -153z" />
    <glyph glyph-name="odieresis" unicode="&#xf6;" horiz-adv-x="515" 
d="M264 501q116 0 172 -83q38 -59 36 -163q0 -109 -34 -168q-28 -46 -77 -70t-109 -24q-118 0 -171 78q-41 61 -39 176q0 89 25 140q25 54 77 84t120 30zM260 399q-61 0 -87 -56q-15 -33 -17 -97q0 -65 15 -95q24 -55 84 -55q71 0 93 71q9 29 9 88q0 58 -13 87
q-22 57 -84 57zM415 583h-118v109h118v-109zM216 583h-119v109h119v-109z" />
    <glyph glyph-name="divide" unicode="&#xf7;" horiz-adv-x="525" 
d="M338 489q0 -29 -21.5 -49.5t-51.5 -20.5q-31 0 -52.5 20.5t-21.5 49.5t21.5 50t52.5 21q30 0 51.5 -21t21.5 -50zM506 251h-483v90h483v-90zM338 98q0 -29 -21.5 -49.5t-51.5 -20.5q-31 0 -52.5 20.5t-21.5 49.5t21.5 49.5t52.5 20.5q30 0 51.5 -20.5t21.5 -49.5z" />
    <glyph glyph-name="ugrave" unicode="&#xf9;" horiz-adv-x="533" 
d="M59 495h112v-295q0 -52 21.5 -76.5t70.5 -24.5q41 0 68 27.5t27 73.5v295h113v-495h-113v49h-3q-45 -55 -126 -55q-80 0 -125 44t-45 132v325zM322 573l-67 -29l-123 179l108 36z" />
    <glyph glyph-name="uacute" unicode="&#xfa;" horiz-adv-x="533" 
d="M59 495h112v-295q0 -52 21.5 -76.5t70.5 -24.5q41 0 68 27.5t27 73.5v295h113v-495h-113v49h-3q-45 -55 -126 -55q-80 0 -125 44t-45 132v325zM283 544l-68 25l79 190l107 -34z" />
    <glyph glyph-name="ucircumflex" unicode="&#xfb;" horiz-adv-x="533" 
d="M59 495h112v-295q0 -52 21.5 -76.5t70.5 -24.5q41 0 68 27.5t27 73.5v295h113v-495h-113v49h-3q-45 -55 -126 -55q-80 0 -125 44t-45 132v325zM402 537l-139 105q-10 -7 -68 -51.5t-72 -53.5l-46 43l149 154h78l146 -153z" />
    <glyph glyph-name="udieresis" unicode="&#xfc;" horiz-adv-x="533" 
d="M59 495h112v-295q0 -52 21.5 -76.5t70.5 -24.5q41 0 68 27.5t27 73.5v295h113v-495h-113v49h-3q-45 -55 -126 -55q-80 0 -125 44t-45 132v325zM416 583h-118v109h118v-109zM217 583h-119v109h119v-109z" />
    <glyph glyph-name="OE" unicode="&#x152;" horiz-adv-x="847" 
d="M821 0h-459q-30 -6 -63 -6q-258 0 -258 250v193q0 112 67 188t191 76q26 0 56 -5h466v-110h-345v-183h294v-105h-294v-189h345v-109zM299 107q31 0 56 11v458q-27 11 -56 11q-50 0 -82.5 -26t-43.5 -61.5t-11 -80.5v-163q0 -149 137 -149z" />
    <glyph glyph-name="oe" unicode="&#x153;" horiz-adv-x="835" 
d="M258 500q110 0 158 -76v-1q50 77 156 77q99 0 157.5 -64t58.5 -172v-49h-316q2 -58 30.5 -88.5t79.5 -30.5q62 0 112 46l70 -78q-74 -70 -183 -70q-112 0 -168 79q-53 -79 -163 -79q-118 0 -170 77q-41 59 -41 168q0 94 24 147q25 54 76 84t119 30zM255 399
q-62 0 -88 -56q-15 -33 -15 -98q0 -64 15 -95q25 -54 86 -54q72 0 94 71q8 25 8 80q0 62 -14 95q-23 57 -86 57zM669 295q-3 50 -29.5 77t-66.5 27t-67 -28t-31 -76h194z" />
    <glyph glyph-name="florin" unicode="&#x192;" horiz-adv-x="525" 
d="M126 328l-1 98h95l8 63q29 211 193 211q50 -2 95 -19l-24 -94q-30 10 -72 10q-62 0 -76 -108l-9 -63h99l1 -98h-112l-28 -208q-30 -217 -176 -217q-53 0 -112 26l28 91q36 -14 69 -14q59 0 75 121q2 21 27 201h-80z" />
    <glyph glyph-name="circumflex" unicode="&#x2c6;" horiz-adv-x="504" 
d="M392 537l-139 105q-10 -7 -68 -51.5t-72 -53.5l-46 43l149 154h78l146 -153z" />
    <glyph glyph-name="uni060B" unicode="&#x60b;" horiz-adv-x="682" 
d="M58 0v112h155q44 0 68 -4q0 1 0.5 2.5t1.5 2.5q-78 44 -78 156q0 90 56 149t152 59q104 0 157.5 -61.5t53.5 -174.5q0 -120 -61 -180.5t-166 -60.5h-339zM518 248q0 56 -25.5 87.5t-77.5 31.5t-77.5 -32.5t-25.5 -78.5q0 -56 42 -89t113 -41q51 35 51 122zM460 557h-91
v91h91v-91zM445 -82v-173h-63v173h63z" />
    <glyph glyph-name="uni060C" unicode="&#x60c;" horiz-adv-x="269" 
d="M58 147l85 150h68l-38 -145h35v-152h-150v147z" />
    <glyph glyph-name="uni0615" unicode="&#x615;" horiz-adv-x="0" 
d="M29 99q-42 0 -54 -48h85v14q0 34 -31 34zM113 0h-226v52h33v123h55v-53l2 -1q29 29 69 29q28 0 47.5 -16t19.5 -47v-87z" />
    <glyph glyph-name="uni061B" unicode="&#x61b;" horiz-adv-x="269" 
d="M58 392l85 150h68l-38 -145h35v-152h-150v147zM208 0h-150v152h150v-152z" />
    <glyph glyph-name="uni061E" unicode="&#x61e;" horiz-adv-x="332" 
d="M274 0h-90v91h90v-91zM149 0h-91v91h91v-91zM211 129h-90v91h90v-91z" />
    <glyph glyph-name="uni061F" unicode="&#x61f;" horiz-adv-x="549" 
d="M58 488q0 83 58 136.5t156 53.5q85 0 144 -51t75 -148q-74 -10 -112 -16q-6 42 -34 72t-72 30q-35 0 -64 -24.5t-29 -56.5q0 -11 3 -21.5t10.5 -22t12.5 -17.5t17.5 -19.5t16.5 -18.5q47 -55 67 -92t20 -87v-34h-117v31q0 30 -15.5 57.5t-37.5 51t-44 48t-38 57.5t-17 71
zM329 0h-119v113h119v-113z" />
    <glyph glyph-name="uni0640" unicode="&#x640;" horiz-adv-x="80" 
d="M-57 55q0 24 16.5 40.5t40.5 16.5h80v-112h-80q-24 0 -40.5 15.5t-16.5 39.5z" />
    <glyph glyph-name="uni0647" unicode="&#x647;" horiz-adv-x="809" 
d="M176 232q0 71 42 120t112 56q-14 28 -20 42q40 26 98.5 43t110.5 17q102 0 167 -61t65 -204q0 -125 -65 -185t-163 -60h-473v112h109q46 0 66 -4l2 4q-24 16 -37.5 49t-13.5 71zM499 115v-5q78 0 111 34t33 105q0 150 -130 150q-34 0 -71 -15q44 -17 68 -57.5t24 -99.5
v-9q-2 -63 -35 -103zM354 313q-36 0 -55.5 -25.5t-19.5 -60.5q0 -39 25 -69t73 -39q51 28 51 103q0 39 -18 65t-56 26z" />
    <glyph glyph-name="uni064B" unicode="&#x64b;" horiz-adv-x="0" 
d="M105 164v-54l-210 -58v53zM105 83v-54l-210 -57v53z" />
    <glyph glyph-name="uni064C" unicode="&#x64c;" horiz-adv-x="0" 
d="M61 17q-23 -7 -66 -18t-57 -15q-3 1 -9 2.5t-8 1.5v56q0 29 -27 29q-7 0 -19 -2v42q16 4 31 4q60 0 60 -58v-15l43 12l1 2q-18 13 -18 47q0 24 18 42.5t47 18.5q32 0 50.5 -20.5t18.5 -52.5q0 -25 -16 -46t-49 -30zM77 95q0 26 -19 26q-9 0 -15.5 -6t-6.5 -16
q0 -24 26 -28q15 7 15 24z" />
    <glyph glyph-name="uni064D" unicode="&#x64d;" horiz-adv-x="0" 
d="M105 0v-53l-210 -51v51zM105 -82v-51l-210 -52v52z" />
    <glyph glyph-name="uni064E" unicode="&#x64e;" horiz-adv-x="0" 
d="M105 79v-54l-210 -50v52z" />
    <glyph glyph-name="uni064F" unicode="&#x64f;" horiz-adv-x="0" 
d="M-12 47v2q-19 17 -19 45q0 24 17.5 43.5t47.5 19.5q32 0 51 -20.5t19 -48.5q0 -61 -65 -78l-143 -39v51zM56 87q0 25 -20 25q-22 0 -22 -21q0 -24 26 -28q16 6 16 24z" />
    <glyph glyph-name="uni0650" unicode="&#x650;" horiz-adv-x="0" 
d="M105 0v-55l-210 -51v53z" />
    <glyph glyph-name="uni0651" unicode="&#x651;" horiz-adv-x="0" 
d="M11 21l-3 -1q-4 -22 -20.5 -34t-39.5 -12q-61 0 -61 75v18l53 15v-36q0 -20 16 -20q7 0 12.5 6t5.5 14v46l50 14v-35q0 -20 18 -20t18 20v47l52 15v-55q0 -77 -63 -77q-29 0 -38 20z" />
    <glyph glyph-name="uni0652" unicode="&#x652;" horiz-adv-x="0" 
d="M-80 85q0 37 22 59.5t59 22.5q36 0 57.5 -22.5t21.5 -59.5q0 -36 -22 -60.5t-57 -24.5q-36 0 -58.5 25t-22.5 60zM32 85q0 14 -8.5 24t-22.5 10q-15 0 -24 -10t-9 -24t9.5 -25t23.5 -11t22.5 11t8.5 25z" />
    <glyph glyph-name="uni0653" unicode="&#x653;" horiz-adv-x="0" 
d="M-38 27l-14 -6l-70 -38v72l91 52h14q11 -26 23.5 -35.5t39.5 -9.5h76v-62h-76q-36 0 -53.5 5t-30.5 22z" />
    <glyph glyph-name="uni0654" unicode="&#x654;" horiz-adv-x="0" 
d="M26 190q49 0 87 -26l-26 -51q-30 18 -63 18q-22 0 -34.5 -11t-12.5 -27q0 -35 41 -35h94v-58h-229v58h37l2 2q-10 13 -10 35q0 35 28 65t86 30z" />
    <glyph glyph-name="uni0655" unicode="&#x655;" horiz-adv-x="0" 
d="M26 0q49 0 87 -26l-26 -51q-30 18 -63 18q-22 0 -34.5 -11t-12.5 -27q0 -35 41 -35h94v-58h-229v58h37l2 2q-10 13 -10 35q0 35 28 65t86 30z" />
    </font>
</defs>
</svg>
